<?xml version="1.0" standalone="no"?>
<!DOCTYPE svg PUBLIC "-//W3C//DTD SVG 1.1//EN" "http://www.w3.org/Graphics/SVG/1.1/DTD/svg11.dtd">
<svg xmlns="http://www.w3.org/2000/svg">
<metadata>Generated by Fontastic.me</metadata>
<defs>
<font id="aqua" horiz-adv-x="512">
<font-face font-family="aqua" units-per-em="512" ascent="480" descent="-32"/>
<missing-glyph horiz-adv-x="512" />

<glyph unicode="&#97;" d="M489 233l-234-233-233 233 7 7 226-226 227 226z m-229 279l-10 0 0-493 10 0z"/>
<glyph unicode="&#98;" d="M14 257l226-227-7-7-233 234 233 233 7-7z m6 5l0-10 492 0 0 10z"/>
<glyph unicode="&#99;" d="M489 279l-7-7-227 226-226-226-7 7 233 233z m-239-279l10 0 0 492-10 0z"/>
<glyph unicode="&#100;" d="M512 257l-233-234-7 7 226 227-226 226 7 7z m-19 5l-493 0 0-10 493 0z"/>
<glyph unicode="&#101;" d="M152 257l223-248-8-7-230 255 230 255 8-7z"/>
<glyph unicode="&#102;" d="M375 257l-230-255-8 7 224 248-224 248 8 7z"/>
<glyph unicode="&#103;" d="M510 368l-255-230-255 230 7 8 248-223 248 223z"/>
<glyph unicode="&#104;" d="M510 146l-7-8-248 223-248-223-7 8 255 230z"/>
<glyph unicode="&#105;" d="M218 486c7 0 10-3 10-10 0 0 0-440 0-440 0-7-3-10-10-10 0 0-23 0-23 0-7 0-11 3-11 10 0 0 0 225 0 225 0 0-90 0-90 0-5 0-10 1-14 3-4 1-9 3-13 6 0 0-62 42-62 42-3 2-5 5-5 9 0 3 2 6 5 8 0 0 62 42 62 42 4 3 9 5 13 6 3 1 7 2 14 2 0 0 90 0 90 0 0 0 0 97 0 97 0 7 4 10 11 10 0 0 23 0 23 0m289-106c3-2 5-5 5-8 0-4-2-6-5-8 0 0-61-42-61-42-7-5-11-7-13-7-5-2-9-3-14-3 0 0-155 0-155 0 0 0-20 118-20 118 0 0 175 0 175 0 6 0 11-1 14-2 4-1 8-3 13-6 0 0 61-42 61-42"/>
<glyph unicode="&#106;" d="M486 276c7 0 13-2 18-6 5-4 8-9 8-14 0-14-9-20-26-20 0 0-24 0-24 0-17 0-26 6-26 20 0 5 3 10 8 14 5 4 11 6 18 6 0 0 24 0 24 0m-230 120c39 0 72-13 100-41 27-27 41-60 41-99 0-40-14-73-41-100-28-28-61-41-100-41-39 0-72 13-99 41-28 27-41 60-41 100 0 39 13 72 41 99 27 28 60 41 99 41m3-242c0 0 0 204 0 204-29 0-54-10-75-30-20-20-30-44-30-72 0-29 10-53 30-73 21-20 46-29 75-29m-182 102c0-14-9-20-26-20 0 0-25 0-25 0-17 0-26 6-26 20 0 5 3 10 8 14 5 4 11 6 18 6 0 0 25 0 25 0 7 0 13-2 18-6 5-4 8-9 8-14m179 179c-5 0-10 3-14 8-4 5-6 11-6 18 0 0 0 25 0 25 0 7 2 13 6 18 4 5 9 8 14 8 5 0 10-3 14-8 4-5 6-11 6-18 0 0 0-25 0-25 0-7-2-13-6-18-4-5-9-8-14-8m0-358c5 0 10-3 14-8 4-5 6-11 6-18 0 0 0-25 0-25 0-7-2-13-6-18-4-5-9-8-14-8-5 0-10 3-14 8-4 5-6 11-6 18 0 0 0 25 0 25 0 7 2 13 6 18 4 5 9 8 14 8m188 338c0 0-17-18-17-18-12-11-23-13-33-4-9 10-8 21 4 33 2 2 8 8 18 18 12 12 23 13 33 3 9-9 8-20-5-32m-358-301c5 5 10 8 17 9 6 1 11-1 15-5 4-4 6-10 5-16-1-7-4-12-8-17 0 0-19-18-19-18-5-5-10-8-17-9-6 0-11 1-14 5-11 10-10 21 3 33 2 2 8 7 18 18m10 330c0 0 19-18 19-18 12-12 13-23 3-33-4-3-9-5-15-4-7 1-12 4-17 8-10 11-16 16-18 18-5 4-8 10-9 17 0 6 1 11 6 15 3 5 8 6 14 6 7-1 12-4 17-9m302-359c-12 12-13 23-4 33 10 9 21 8 33-4 0 0 17-18 17-18 13-12 14-23 5-33-10-9-21-8-33 4-10 10-16 16-18 18"/>
<glyph unicode="&#107;" d="M68 350c-6-5-12-7-19-6-7 1-12 4-17 9-5 5-7 11-6 19 0 7 3 13 9 18 16 14 30 24 40 31 11 7 26 14 46 20 20 7 42 8 66 2 24-5 51-16 81-33 30-17 57-27 80-28 23-1 40 2 51 9 11 6 26 18 45 34 13 10 25 9 36-3 11-14 10-26-3-37-41-38-81-56-120-56-34 0-72 12-113 36-23 13-44 21-61 26-18 5-33 5-48 0-14-5-25-10-33-15-8-5-19-14-34-26m376-56c13 11 25 10 36-3 11-14 10-26-3-37-13-12-25-21-33-27-9-7-21-13-37-20-16-6-33-9-50-9-32 0-70 12-113 35-23 13-44 22-61 27-18 5-33 5-48 0-14-5-25-10-33-15-8-5-19-14-34-26-5-5-11-7-18-6-8 1-13 4-18 9-11 14-10 26 3 37 13 12 23 20 31 26 7 5 19 12 35 19 16 8 31 12 45 12 14 0 32-2 54-8 22-5 44-15 68-28 24-13 44-22 61-27 18-5 33-5 48 0 14 5 25 10 33 15 8 5 19 14 34 26m0-131c13 11 25 10 36-3 5-5 7-11 6-19 0-7-3-13-9-18-13-12-25-21-33-27-9-7-21-13-37-20-16-6-33-9-50-9-32 0-70 12-113 35-23 13-44 22-61 27-18 5-33 5-48 1-14-5-25-10-34-15-8-6-19-15-33-27-5-5-11-7-18-6-8 1-13 4-18 9-11 14-10 26 3 37 13 12 23 20 31 26 7 5 19 12 35 19 16 8 31 11 45 12 14 0 32-2 54-8 22-5 44-15 68-29 24-12 44-21 61-26 18-5 33-5 48 0 14 5 25 10 33 15 8 5 19 14 34 26"/>
<glyph unicode="&#108;" d="M478 197c7-6 10-11 8-17-1-6-6-10-14-12 0 0-40-11-40-11-8-2-15-7-20-15-6-7-8-15-7-24 0 0 2-42 2-42 0-8-2-14-8-18-5-3-12-3-19 0 0 0-44 23-44 23-8 4-16 5-24 2-9-3-15-8-18-15 0 0-24-45-24-45-4-8-9-12-14-12-6-1-12 3-17 9 0 0-26 40-26 40-12 17-27 20-45 11 0 0-62-36-62-36-8-5-13-6-17-3-3 2-4 8-1 16 0 0 28 84 28 84 3 8 2 16-2 23-4 6-11 10-19 11 0 0-54 6-54 6-8 1-13 4-15 9-2 5 1 10 8 16 0 0 44 39 44 39 7 5 10 12 10 21 0 8-3 15-10 21 0 0-44 38-44 38-7 6-10 12-8 17 1 6 6 10 14 12 0 0 40 11 40 11 8 2 15 7 21 15 6 7 8 15 8 24 0 0-3 42-3 42 0 9 2 15 7 19 5 3 12 3 19 0 0 0 41-20 41-20 8-3 17-4 25-1 9 3 15 8 19 16 0 0 24 41 24 41 4 7 9 11 15 10 6 0 11-4 15-12 0 0 26-44 26-44 4-7 10-12 18-14 8-3 15-2 23 3 0 0 70 43 70 43 7 5 12 6 15 3 3-2 3-8 0-16 0 0-31-87-31-87-3-8-3-15 1-21 4-7 11-10 20-11 0 0 58-6 58-6 9-1 14-3 15-8 2-5-1-10-8-16 0 0-44-38-44-38-6-6-9-13-9-21 0-9 3-16 9-21 0 0 44-39 44-39m-196-47c0 0 0 53 0 53 0 0-52 0-52 0 0 0 0-53 0-53 0 0 52 0 52 0m0 81c0 0 0 134 0 134 0 0-52 0-52 0 0 0 0-134 0-134 0 0 52 0 52 0"/>
<glyph unicode="&#109;" d="M435 384c0 0 0-26 0-26 0 0-357 0-357 0 0 0 0 26 0 26 0 8 3 13 7 18 5 4 9 7 13 8 0 0 6 0 6 0 0 0 305 0 305 0 2 0 5-1 7-1 3 0 7-3 12-7 4-5 7-10 7-18m-76 77c2 0 4 0 7-1 3 0 7-2 11-7 5-4 8-10 8-18 0 0-255 0-255 0 0 8 2 14 6 18 5 5 9 7 13 8 0 0 6 0 6 0 0 0 204 0 204 0m127-103c12-11 18-18 19-23 3-6 3-16 0-28 0 0-38-230-38-230-2-8-5-14-11-18-5-5-10-7-14-8 0 0-7 0-7 0 0 0-357 0-357 0-17 0-28 9-30 26-2 9-9 47-20 114-11 67-18 106-20 116-4 8-4 15-2 23 3 7 4 12 5 13 1 1 5 5 11 10 0 0 5 5 5 5 0 0 16 16 16 16 0 0 0-41 0-41 0 0 428 0 428 0 0 0 0 41 0 41 0 0 15-16 15-16m-127-138c0 0 0 51 0 51 0 0-36 0-36 0 0 0 0-41 0-41 0 0-133 0-133 0 0 0 0 41 0 41 0 0-35 0-35 0 0 0 0-51 0-51 0-17 8-25 25-25 0 0 153 0 153 0 8 0 14 2 18 6 5 4 7 8 7 12 0 0 1 7 1 7"/>
<glyph unicode="&#110;" d="M256 512c0 0 118-186 118-186 0 0-236 0-236 0 0 0 118 186 118 186m0-512c0 0-118 187-118 187 0 0 236 0 236 0 0 0-118-187-118-187"/>
<glyph unicode="&#111;" d="M141 148c0 0 60 60 60 60 0 0 0-150 0-150 0 0-142 9-142 9 0 0 45 44 45 44-39 41-59 91-58 148 1 57 21 107 62 148 34 34 75 53 122 59 0 0 2-52 2-52-34-6-63-21-88-45-30-30-45-67-46-109 0-43 14-80 43-112m170 307c0 0 142-9 142-9 0 0-45-44-45-44 39-41 59-91 58-148-1-57-21-107-62-148-32-33-73-53-122-60 0 0-1 53-1 53 33 6 62 21 87 45 30 30 45 67 46 109 0 43-14 80-43 112 0 0-59-60-59-60 0 0-1 150-1 150"/>
<glyph unicode="&#112;" d="M141 5c-35 0-64 12-87 37-25 24-38 52-38 85-1 33 13 65 43 97 0 0 254 254 254 254 27 28 57 37 89 28 15-4 28-12 40-24 12-12 20-26 24-41 9-32 0-62-27-90 0 0-243-242-243-242-14-14-29-22-45-24-17-1-30 3-41 14-10 9-15 21-14 38 1 17 9 33 24 47 0 0 170 171 170 171 8 9 17 9 26 0 9-9 9-17 0-25 0 0-170-170-170-170-15-15-19-27-11-36 5-3 9-4 13-3 8 1 16 6 23 13 0 0 243 243 243 243 17 17 23 35 17 55-5 21-18 34-39 39-18 5-36-1-55-18 0 0-253-253-253-253-22-26-33-51-33-74 1-22 10-42 27-59 17-17 37-25 60-26 23-1 47 10 72 32 0 0 254 253 254 253 8 8 17 8 26 0 9-8 9-16 0-25 0 0-254-254-254-254-28-28-60-42-95-42"/>
<glyph unicode="&#113;" d="M499 65c4-6 4-12 0-18-3-5-8-8-15-8 0 0-457 0-457 0-6 0-11 3-14 8-4 6-4 12-1 18 0 0 228 400 228 400 3 6 8 9 16 9 7 0 12-3 15-9 0 0 228-400 228-400m-215 25c0 0 0 51 0 51 0 0-56 0-56 0 0 0 0-51 0-51 0 0 56 0 56 0m0 89c0 0 0 154 0 154 0 0-56 0-56 0 0 0 0-154 0-154 0 0 56 0 56 0"/>
<glyph unicode="&#114;" d="M422 353c14 0 26-5 36-15 10-9 16-22 16-36 0 0 0-148 0-148 0-14-6-26-16-36-10-10-22-16-36-16 0 0-353 0-353 0 0 0 0 72 0 72 0 0 333 0 333 0 0 0 0 108 0 108 0 0-256 0-256 0 0 0 0-57 0-57 0 0-108 92-108 92 0 0 108 93 108 93 0 0 0-57 0-57 0 0 276 0 276 0"/>
<glyph unicode="&#115;" d="M288 466c58 0 107-21 148-62 40-40 61-90 61-148 0-58-21-108-61-148-41-41-90-62-148-62-47 0-90 15-129 45 0 0 36 39 36 39 28-20 59-31 93-31 43 0 80 16 110 46 31 31 46 68 46 111 0 44-15 81-46 112-30 30-67 46-110 46-43 0-79-15-109-44-31-30-47-66-48-108 0 0 73 0 73 0 0 0-94-105-94-105 0 0-95 105-95 105 0 0 64 0 64 0 1 57 22 105 63 145 40 39 89 59 146 59m-19-97c0 0 36 0 36 0 0 0 0-105 0-105 0 0 67-66 67-66 0 0-26-26-26-26 0 0-77 77-77 77 0 0 0 120 0 120"/>
<glyph unicode="&#116;" d="M463 419c10-9 14-19 13-31 0 0-51-332-51-332-2-10-9-15-19-15 0 0-300 0-300 0-10 0-16 5-20 15-33 212-49 323-50 332-1 12 3 22 12 31 2 2 11 9 27 22 17 12 26 20 29 22 6 5 16 8 29 8 0 0 245 0 245 0 13 0 23-3 29-8 27-20 45-35 56-44m-207-223c19 0 35 5 50 17 14 12 25 27 32 46 7 18 12 34 15 45 3 12 6 23 7 34 0 0-47 0-47 0-13-64-32-96-57-96-26 0-45 32-58 96 0 0-47 0-47 0 16-95 51-142 105-142m-181 188c0 0 361 0 361 0 0 0-57 59-57 59 0 0-247 0-247 0 0 0-57-59-57-59"/>
<glyph unicode="&#117;" d="M102 77c0 13 6 25 16 36 10 10 22 15 36 15 14 0 26-5 36-15 10-11 15-23 15-36 0-15-5-27-15-37-10-9-22-14-36-14-14 0-26 5-36 14-10 10-16 22-16 37m256 0c0 13 6 25 16 36 10 10 22 15 36 15 14 0 26-5 36-15 10-11 15-23 15-36 0-15-5-27-15-37-10-9-22-14-36-14-14 0-26 5-36 14-10 10-16 22-16 37m-164 121c-13-4-19-8-18-12 1-5 8-7 23-7 0 0 287 0 287 0 0 0 0-39 0-39 0-7-3-10-10-10 0 0-66 0-66 0 0 0-256 0-256 0 0 0-13 0-13 0-7 0-10 3-10 10 0 0 0 39 0 39 0 0-5 24-5 24 0 0-50 232-50 232 0 0-50 0-50 0 0 0 0 41 0 41 0 7 3 10 10 10 0 0 80 0 80 0 7 0 10-3 10-10 0 0 0-44 0-44 0 0 360 0 360 0 0 0 0-140 0-140 0-8-3-12-9-13 0 0-283-81-283-81"/>
<glyph unicode="&#118;" d="M394 256c0-33 6-60 19-80 12-21 25-31 40-31 0 0 33 0 33 0-10-15-21-26-32-33-12-6-32-10-61-10 0 0-256 0-256 0-44 0-78 16-102 49-23 32-35 67-35 105 0 38 12 73 35 105 24 32 58 49 102 49 0 0 256 0 256 0 29 0 49-4 61-10 11-7 22-18 32-33 0 0-33 0-33 0-15 0-28-11-40-31-13-21-19-47-19-80m-69-46c3 4 2 8-4 13-47 46-77 74-92 84-5 4-10 6-13 7-3 1-6 0-9-3-3-2-5-4-5-6-1-1-2-4-4-9 0 0-12-29-12-29 0 0-75 34-75 34-9 4-15 4-18 0-3-5-1-10 4-14 47-45 77-73 92-83 12-6 19-8 22-6 3 2 6 7 9 16 0 0 12 30 12 30 0 0 75-35 75-35 9-4 15-4 18 1m158 98c8 0 14-4 20-14 6-9 9-21 9-36 0-15-3-27-9-37-6-9-12-14-20-14 0 0-19 0-19 0-8 0-14 5-20 14-5 10-8 22-8 37 0 15 3 27 8 36 6 10 12 14 20 14 0 0 19 0 19 0"/>
<glyph unicode="&#119;" d="M207 274c19 0 33-6 43-20 10-14 16-27 16-41 0 0 0-20 0-20 0-20-3-36-10-50-7-13-15-23-26-29-10-6-20-11-30-14-10-3-18-5-25-6 0 0-10 0-10 0 0 0-165 0-165 0 0 0 0 331 0 331 0 0 165 0 165 0 26 0 48-8 65-23 17-15 25-36 25-65 0-17-4-31-12-42-8-10-16-16-24-19 0 0-12-2-12-2m-134 93c0 0 0-74 0-74 0 0 87 0 87 0 9 0 15 2 20 8 5 5 7 15 7 31 0 10-1 18-5 24-4 6-8 9-12 10 0 0-5 1-5 1 0 0-92 0-92 0m88-213c25 0 38 14 38 43 0 13-3 24-9 31-5 8-10 12-16 13 0 0-9 1-9 1 0 0-92 0-92 0 0 0 0-88 0-88 0 0 88 0 88 0m239 187c24 0 44-5 61-15 16-10 28-22 34-36 7-14 11-28 14-42 3-14 4-25 3-35 0 0-1-15-1-15 0 0-164 0-164 0 0-19 5-33 14-42 9-10 19-15 28-15 0 0 13-1 13-1 16 0 28 3 37 9 8 6 13 11 14 17 0 0 1 9 1 9 0 0 55 0 55 0 0-28-9-49-27-63-18-15-36-22-54-23 0 0-28-1-28-1-24 0-45 4-62 13-17 8-29 19-37 32-7 12-13 25-17 37-4 12-5 23-5 31 0 0 0 13 0 13 0 3 0 8 0 14 0 6 3 16 7 31 5 14 11 27 19 38 7 11 20 21 37 30 16 9 36 14 58 14m51-99c0 1-1 3-1 5 0 3-1 7-3 13-2 5-4 11-7 15-2 4-7 8-14 12-7 4-15 6-24 6-14 0-26-4-35-13-10-8-16-17-18-26 0 0-3-12-3-12 0 0 105 0 105 0m13 164c0 0 0-40 0-40 0 0-131 0-131 0 0 0 0 40 0 40 0 0 131 0 131 0"/>
<glyph unicode="&#120;" d="M375 295c5-12 12-21 20-27 9-6 16-10 23-11 8-1 15-5 23-12 8-6 14-16 18-28 7-21-5-49-38-82-33-34-76-61-129-81-56-20-107-27-152-23-45 5-72 17-79 39-7 18-5 37 6 56 11 20 14 39 9 57-19 66-27 117-24 154 3 37 22 70 58 98 9 8 14 16 15 26 1 10 6 17 14 20 9 3 16 1 24-6 7-7 17-10 29-9 45 1 78-11 101-34 23-23 50-69 82-137m-95-207c30 11 57 25 81 44 24 18 41 33 51 46 10 13 14 22 13 26-3 7-11 13-25 17-14 3-35 4-63 0-29-3-61-11-96-24-35-13-65-28-89-45-24-17-40-31-48-43-8-12-11-21-9-27 2-4 10-8 26-11 16-4 39-4 69-2 30 2 60 8 90 19m-32 89c3 1 6 2 11 4 4 1 7 3 8 3 0 0 1-1 1-1 5-13 2-28-8-42-11-15-26-26-46-32-33-13-59-10-78 7 27 23 64 43 112 61"/>
<glyph unicode="&#121;" d="M256 502c68 0 126-24 174-72 48-48 72-106 72-174 0-68-24-125-72-174-48-48-106-72-174-72-68 0-125 24-174 72-48 49-72 106-72 174 0 68 24 126 72 174 49 48 106 72 174 72m132-113l0 0m-318-133c0-45 14-84 42-118 0 0 263 263 263 263-34 28-74 42-119 42-52 0-96-18-132-54-36-37-54-81-54-133m54-132l0 0m132-54c52 0 96 18 133 54 36 37 54 81 54 132 0 44-14 84-42 119 0 0-263-263-263-263 34-28 73-42 118-42"/>
<glyph unicode="&#122;" d="M426 381c6-3 9-8 9-14 0 0 0-288 0-288 0-5-2-9-6-13-4-4-9-6-14-6-16 0-24 7-24 19 0 0 0 267 0 267 0 4-2 7-6 9 0 0-207 111-207 111-11 3-22 2-35-5-15-7-24-15-28-23 0 0 209-116 209-116 6-3 9-8 9-15 0 0 0-281 0-281 0-8-3-13-9-15-2-1-5-2-9-2-4 0-8 1-10 2-3 2-37 24-103 65-66 42-103 64-109 67-9 7-13 12-13 18 0 0-3 268-3 268 0 10 2 18 7 27 10 15 27 29 52 39 25 11 45 12 60 5 0 0 230-119 230-119"/>
<glyph unicode="&#65;" d="M200 199c0 0 0-35 0-35 0 0-103 41-103 41 0 0 0 35 0 35 0 0 103-41 103-41m0 106c0 0 0-35 0-35 0 0-103 41-103 41 0 0 0 35 0 35 0 0 103-41 103-41m275 177c8-4 11-11 11-21 0 0 0-328 0-328 0-11-5-19-16-23 0 0-204-82-204-82-2-1-4-1-5-1-1 0-1-1-2-1-1 0-2 0-3 0-1 0-2 0-3 0-1 0-1 1-2 1 0 0-5 1-5 1 0 0-204 82-204 82-11 4-16 12-16 23 0 0 0 328 0 328 0 10 3 17 11 21 7 6 15 7 23 3 0 0 196-78 196-78 0 0 196 78 196 78 8 4 16 3 23-3m-245-403c0 0 0 287 0 287 0 0-163 65-163 65 0 0 0-287 0-287 0 0 163-65 163-65m215 65c0 0 0 287 0 287 0 0-163-65-163-65 0 0 0-287 0-287 0 0 163 65 163 65m-30 96c0 0 0-35 0-35 0 0-103-41-103-41 0 0 0 35 0 35 0 0 103 41 103 41m0 106c0 0 0-35 0-35 0 0-103-41-103-41 0 0 0 35 0 35 0 0 103 41 103 41"/>
<glyph unicode="&#66;" d="M323 486c7 0 13-2 18-7 5-5 7-11 7-18 0 0 0-435 0-435 0 0-92 92-92 92 0 0-92-92-92-92 0 0 0 435 0 435 0 17 7 25 20 25 0 0 139 0 139 0"/>
<glyph unicode="&#67;" d="M371 512c7 0 13-3 18-8 5-5 8-11 8-18 0 0 0-435 0-435 0 0-77 92-77 92 0 0 0 318 0 318 0 7-3 13-8 18-5 5-11 7-18 7 0 0-51 0-51 0 0 17 7 26 21 26 0 0 107 0 107 0m-128-77c7 0 13-2 18-7 5-6 8-12 8-18 0 0 0-410 0-410 0 0-77 92-77 92 0 0-77-92-77-92 0 0 0 410 0 410 0 17 7 25 21 25 0 0 107 0 107 0"/>
<glyph unicode="&#68;" d="M471 461c4 0 8-2 11-5 3-3 4-6 4-11 0 0 0-61 0-61 0 0-460 0-460 0 0 0 0 61 0 61 0 5 1 8 4 11 3 3 7 5 11 5 0 0 430 0 430 0m-420-374c0 0 0 271 0 271 0 0 410 0 410 0 0 0 0-271 0-271 0-10-4-19-11-26-7-6-15-10-25-10 0 0-338 0-338 0-10 0-18 4-25 10-7 7-11 16-11 26m128 220c0 0 0-51 0-51 0 0 154 0 154 0 0 0 0 51 0 51 0 0-154 0-154 0"/>
<glyph unicode="&#69;" d="M233 244c0 0 0-51 0-51 0 0-233 0-233 0 3 77 4 126 5 149 1 37 19 55 51 55 0 0 82 0 82 0 6 9 12 21 19 35 7 14 11 21 12 23 5 9 9 14 12 16 3 2 9 3 19 3 0 0 113 0 113 0 9 0 15-1 19-3 3-3 7-8 11-16 6-11 16-30 31-58 0 0 82 0 82 0 32 0 50-18 51-55 0 0 5-149 5-149 0 0-232 0-232 0 0 0 0 51 0 51 0 0-47 0-47 0m-37 181c0 0-15-28-15-28 0 0 150 0 150 0 0 0-15 28-15 28-4 9-12 13-21 13 0 0-78 0-78 0-9 0-17-4-21-13m84-309c0 0 0 51 0 51 0 0 220 0 220 0-2-30-4-58-5-85-2-29-18-43-46-43 0 0-384 0-384 0-31 0-47 14-47 43 0 0-5 85-5 85 0 0 220 0 220 0 0 0 0-51 0-51 0 0 47 0 47 0"/>
<glyph unicode="&#70;" d="M70 164c13 11 28 16 44 15 16-2 31-10 44-23 15-14 23-29 25-45 2-16-3-30-15-42-30-29-69-46-117-53-29-4-42-1-41 8 0 1 1 3 3 5 18 20 29 45 33 74 4 29 12 49 24 61m430 331c9-9-16-52-75-127-60-76-110-134-150-173-13-13-34-31-63-54-3-2-6 0-8 4-7 12-15 23-25 33-11 11-22 19-34 25-5 2-7 5-4 8 22 29 40 49 53 62 41 40 99 89 176 147 78 59 121 83 130 75"/>
<glyph unicode="&#71;" d="M290 476c59 0 108-8 146-25 38-17 56-35 53-54-2-13-10-65-24-157-15-92-22-140-23-144-1-6-7-13-19-22-12-9-30-18-55-26-24-8-50-12-78-12-28 0-55 4-79 12-24 8-42 17-54 26-12 9-18 16-19 22 0 1-1 6-2 16 28-2 56 4 83 18 28 14 52 33 72 59 9 0 17 4 24 11 7 7 10 15 10 25 0 10-3 18-10 25-7 8-15 11-25 11-10 0-18-3-26-11-7-7-10-15-10-25 0-7 1-13 5-18-17-20-36-35-59-46-23-10-45-15-67-14-35 4-62 14-81 30-18 16-28 34-30 55-2 42 24 73 80 95-6 32-10 55-11 70-3 19 15 37 53 54 38 17 87 25 146 25m-232-240c1-11 8-21 19-31 11-9 27-16 47-20 0 0-17 105-17 105-34-15-50-33-49-54m232 108c28 0 54 3 80 9 26 6 45 13 58 20 13 7 19 13 19 18 0 5-6 11-19 18-13 7-32 14-58 20-25 6-52 9-80 9-28 0-55-3-80-9-26-6-45-13-58-20-13-7-19-13-19-18 0-5 6-11 19-18 13-7 32-14 58-20 25-6 52-9 80-9"/>
<glyph unicode="&#72;" d="M435 435c15 0 27-5 37-15 9-10 14-22 14-36 0 0 0-307 0-307 0-14-5-26-14-36-10-10-22-15-37-15 0 0-358 0-358 0-14 0-26 5-36 15-10 10-15 22-15 36 0 0 0 307 0 307 0 14 5 26 15 36 10 10 22 15 36 15 0 0 23 0 23 0 0 0 0-51 0-51 0 0 82 0 82 0 0 0 0 51 0 51 0 0 149 0 149 0 0 0 0-51 0-51 0 0 82 0 82 0 0 0 0 51 0 51 0 0 22 0 22 0m0-358c0 0 0 205 0 205 0 0-358 0-358 0 0 0 0-205 0-205 0 0 358 0 358 0m-276 409c0 0 0-87 0-87 0 0-36 0-36 0 0 0 0 87 0 87 0 0 36 0 36 0m230 0c0 0 0-87 0-87 0 0-36 0-36 0 0 0 0 87 0 87 0 0 36 0 36 0"/>
<glyph unicode="&#73;" d="M256 307c22 0 40-7 55-22 14-15 22-33 22-55 0-21-8-39-23-54-15-15-33-22-54-22-21 0-39 7-54 22-15 15-23 33-23 54 0 22 8 40 23 55 15 15 33 22 54 22m205 77c14 0 26-5 36-15 10-10 15-22 15-36 0 0 0-231 0-231 0-13-5-25-15-35-10-11-22-16-36-16 0 0-410 0-410 0-13 0-25 5-36 16-10 10-15 22-15 35 0 0 0 231 0 231 0 14 5 26 15 36 11 10 23 15 36 15 0 0 62 0 62 0 9 0 16 5 20 15 0 0 15 47 15 47 4 10 11 15 21 15 0 0 174 0 174 0 10 0 17-5 21-15 0 0 15-47 15-47 4-10 11-15 20-15 0 0 62 0 62 0m-205-282c36 0 66 13 91 38 25 25 37 55 37 90 0 36-12 66-37 91-25 25-55 37-91 37-35 0-66-12-91-37-25-25-37-55-37-91 0-35 12-65 37-90 25-25 56-38 91-38m187 195c5 0 9 2 13 6 3 3 5 8 5 12 0 5-2 9-5 13-4 3-8 5-13 5-12 0-18-6-18-18 0-5 2-10 6-13 3-3 8-5 12-5"/>
<glyph unicode="&#74;" d="M367 176c6-6 9-13 9-22 0-8-3-16-9-22-6-5-13-8-22-8-8 0-16 3-22 8 0 0-68 78-68 78 0 0-67-78-67-78-6-5-14-8-22-8-9 0-16 3-22 8-6 6-8 14-8 22 0 9 2 16 8 22 0 0 71 80 71 80 0 0-71 81-71 81-6 6-8 13-8 22 0 8 2 16 8 22 6 5 13 8 22 8 8 0 16-3 22-8 0 0 67-78 67-78 0 0 68 78 68 78 6 5 14 8 22 8 9 0 16-3 22-8 6-6 9-14 9-22 0-9-3-16-9-22 0 0-71-81-71-81 0 0 71-80 71-80"/>
<glyph unicode="&#75;" d="M256 471c59 0 110-21 152-63 42-42 63-93 63-152 0-59-21-110-63-152-42-42-93-63-152-63-59 0-110 21-152 63-42 42-63 93-63 152 0 59 21 110 63 152 42 42 93 63 152 63m44-215c0 0 79 79 79 79 0 0-44 44-44 44 0 0-79-78-79-78 0 0-78 78-78 78 0 0-45-44-45-44 0 0 79-79 79-79 0 0-79-78-79-78 0 0 45-44 45-44 0 0 78 78 78 78 0 0 79-78 79-78 0 0 44 44 44 44 0 0-79 78-79 78"/>
<glyph unicode="&#76;" d="M410 461c14 0 26-5 36-15 10-10 15-22 15-36 0 0 0-308 0-308 0-13-5-25-15-35-10-11-22-16-36-16 0 0-308 0-308 0-13 0-25 5-35 16-11 10-16 22-16 35 0 0 0 308 0 308 0 14 5 26 16 36 10 10 22 15 35 15 0 0 308 0 308 0m-75-327c0 0 44 44 44 44 0 0-79 78-79 78 0 0 79 79 79 79 0 0-44 44-44 44 0 0-79-78-79-78 0 0-78 78-78 78 0 0-45-44-45-44 0 0 79-79 79-79 0 0-79-78-79-78 0 0 45-44 45-44 0 0 78 78 78 78 0 0 79-78 79-78"/>
<glyph unicode="&#77;" d="M253 502c68 0 126-23 174-70 48-47 73-104 75-172 0-68-23-127-70-175-47-48-105-73-173-75-68 0-126 23-175 70-48 48-73 105-74 173-1 68 22 127 69 175 48 48 106 73 174 74m6-440c53 1 99 21 136 59 38 38 56 84 56 138-1 54-21 100-59 137-39 37-85 55-138 55-54-1-100-21-137-59-37-38-55-84-55-138 1-54 21-100 59-137 38-37 84-55 138-55m-63 153c13 0 23 7 29 21 0 0 29-16 29-16-7-12-15-21-26-26-11-7-23-11-35-11-22 0-39 7-52 20-13 12-19 30-19 53 0 23 6 41 19 54 13 13 30 20 49 20 30 0 51-12 64-34 0 0-32-16-32-16-3 6-7 11-12 14-5 3-10 4-14 4-21 0-31-14-31-42 0-13 2-23 7-30 6-7 14-11 24-11m136 0c14 0 24 7 28 21 0 0 30-16 30-16-6-11-15-20-25-26-11-7-23-11-36-11-22 0-39 7-51 20-13 12-20 30-20 53 0 22 7 40 20 54 12 13 29 20 50 20 28 0 49-12 61-34 0 0-31-16-31-16-3 6-7 11-12 14-5 3-9 4-14 4-21 0-32-14-32-42 0-12 3-22 8-30 6-7 14-11 24-11"/>
<glyph unicode="&#78;" d="M256 346c-23 0-34 12-34 35 0 23 11 35 34 35 23 0 35-12 35-35 0-23-12-35-35-35m50-13c5 0 9-2 11-4 4-4 6-7 6-12 0 0 0-100 0-100 0 0-29 0-29 0 0 0 0-120 0-120 0 0-76 0-76 0 0 0 0 120 0 120 0 0-29 0-29 0 0 0 0 100 0 100 0 5 2 8 6 12 2 2 6 4 11 4 0 0 100 0 100 0m-50 169c68 0 126-24 174-72 48-48 72-106 72-174 0-68-24-125-72-174-48-48-106-72-174-72-68 0-125 24-174 72-48 49-72 106-72 174 0 68 24 126 72 174 49 48 106 72 174 72m0-447c55 0 103 20 142 59 39 39 59 87 59 142 0 56-20 103-59 142-39 39-87 59-142 59-55 0-103-20-142-59-39-39-59-86-59-142 0-55 20-103 59-142 39-39 87-59 142-59"/>
<glyph unicode="&#79;" d="M256 502c68 0 126-24 174-72 48-48 72-106 72-174 0-68-24-125-72-174-48-48-106-72-174-72-68 0-125 24-174 72-48 49-72 106-72 174 0 68 24 126 72 174 49 48 106 72 174 72m-189-179c-8-22-12-44-12-67 0-55 20-103 59-142 39-39 87-59 142-59 38 0 72 10 103 29 32 19 56 44 73 76 0 0-91 41-91 41-3-16-11-29-24-38-13-10-27-16-44-18 0 0 0-37 0-37 0 0-28 0-28 0 0 0 0 37 0 37-27 0-52 10-75 30 0 0 34 34 34 34 17-15 35-23 55-23 8 0 15 2 22 7 6 4 9 10 9 18 0 6-3 11-7 15 0 0-24 11-24 11 0 0-29 13-29 13 0 0-39 16-39 16 0 0-124 57-124 57m259-63c0 0 124-55 124-55 4 15 7 32 7 51 0 56-20 103-59 142-39 39-87 59-142 59-35 0-67-8-96-25-30-16-54-38-72-66 0 0 93-42 93-42 4 12 12 22 24 31 11 8 24 12 40 13 0 0 0 38 0 38 0 0 28 0 28 0 0 0 0-38 0-38 24-2 44-9 62-23 0 0-32-33-32-33-15 10-29 15-43 15-8 0-15-2-19-4-7-4-10-9-10-16 0-3 1-5 2-6 0 0 31-14 31-14 0 0 22-9 22-9 0 0 40-18 40-18"/>
<glyph unicode="&#80;" d="M256 502c68 0 126-24 174-72 48-48 72-106 72-174 0-68-24-125-72-174-48-48-106-72-174-72-68 0-125 24-174 72-48 49-72 106-72 174 0 68 24 126 72 174 49 48 106 72 174 72m-189-180c-8-22-12-43-12-66 0-55 20-103 59-142 39-39 87-59 142-59 38 0 72 10 103 28 31 19 55 45 73 77 0 0-126 55-126 55 0 0-89 0-89 0 4-12 8-22 13-29 13-13 31-20 54-20 15 0 31 3 47 10 0 0 9-46 9-46-19-10-40-15-64-15-43 0-77 15-100 47-11 15-19 33-23 53 0 0-27 0-27 0 0 0 0 30 0 30 0 0 22 0 22 0 0 0 0 7 0 7 0 1 1 3 1 6 0 3 1 5 1 6 0 0-24 0-24 0 0 0 0 29 0 29 0 0 5 0 5 0 0 0-64 29-64 29m249-58c0 0 135-59 135-59 4 16 6 33 6 51 0 56-20 103-59 142-39 39-87 59-142 59-35 0-67-8-97-25-29-16-54-38-72-66 0 0 81-36 81-36 3 5 7 11 14 19 25 28 56 42 94 42 24 0 45-4 63-12 0 0-12-47-12-47-14 7-29 10-45 10-22 0-39-7-52-23-3-3-6-8-8-14 0 0 29-12 29-12 0 0 70 0 70 0 0 0 0-29 0-29 0 0-5 0-5 0"/>
<glyph unicode="&#81;" d="M256 502c68 0 126-24 174-72 48-48 72-106 72-174 0-68-24-125-72-174-48-48-106-72-174-72-68 0-125 24-174 72-48 49-72 106-72 174 0 68 24 126 72 174 49 48 106 72 174 72m-191-187c-7-18-10-38-10-59 0-55 20-103 59-142 39-39 87-59 142-59 36 0 69 9 100 27 30 18 54 42 72 72 0 0-78 34-78 34 0 0 0-34 0-34 0 0-64 0-64 0 0 0 0-56 0-56 0 0-61 0-61 0 0 0 0 56 0 56 0 0-63 0-63 0 0 0 0 37 0 37 0 0 63 0 63 0 0 0 0 19 0 19 0 0-6 12-6 12 0 0-57 0-57 0 0 0 0 38 0 38 0 0 27 0 27 0 0 0-124 55-124 55m221-124c0 0 57 0 57 0 0 0-54 25-54 25 0 0-3-6-3-6 0 0 0-19 0-19m64 52c0 0 99-44 99-44 5 19 8 39 8 57 0 56-20 103-59 142-39 39-87 59-142 59-36 0-69-9-99-26-30-18-54-41-72-71 0 0 81-35 81-35 0 0-28 50-28 50 0 0 66 0 66 0 0 0 39-85 39-85 0 0 23-10 23-10 0 0 42 95 42 95 0 0 66 0 66 0 0 0-63-115-63-115 0 0 39 0 39 0 0 0 0-17 0-17"/>
<glyph unicode="&#82;" d="M167 272c0 0 0 42 0 42 0 0 178 0 178 0 0 0 0-42 0-42 0 0-178 0-178 0m0-78c0 0 0 42 0 42 0 0 178 0 178 0 0 0 0-42 0-42 0 0-178 0-178 0m89 308c68 0 126-24 174-72 48-48 72-106 72-174 0-68-24-125-72-174-48-48-106-72-174-72-68 0-125 24-174 72-48 49-72 106-72 174 0 68 24 126 72 174 49 48 106 72 174 72m0-447c55 0 103 20 142 59 39 39 59 87 59 142 0 56-20 103-59 142-39 39-87 59-142 59-55 0-103-20-142-59-39-39-59-86-59-142 0-55 20-103 59-142 39-39 87-59 142-59"/>
<glyph unicode="&#83;" d="M256 502c68 0 126-24 174-72 48-48 72-106 72-174 0-68-24-125-72-174-48-48-106-72-174-72-68 0-125 24-174 72-48 49-72 106-72 174 0 68 24 126 72 174 49 48 106 72 174 72m-189-180c-8-22-12-43-12-66 0-55 20-103 59-142 39-39 87-59 142-59 38 0 72 10 103 28 31 19 55 45 73 77 0 0-217 96-217 96 1-18 6-35 14-49 9-14 22-22 39-22 13 0 24 5 33 14 0 0 3 3 3 3 0 0 36-43 36-43-1-1-3-2-5-4-2-2-4-3-4-4-21-15-45-22-70-22-29 0-56 10-81 30-25 20-38 52-38 96 0 11 1 21 3 32 0 0-78 35-78 35m158-18c0 0 226-99 226-99 4 16 6 33 6 51 0 56-20 103-59 142-39 39-87 59-142 59-35 0-67-8-97-25-29-16-54-38-72-66 0 0 76-34 76-34 22 35 55 52 100 52 30 0 56-9 77-28 0 0-40-41-40-41-3 3-5 5-7 7-8 5-17 8-27 8-18 0-31-9-41-26"/>
<glyph unicode="&#84;" d="M417 252c0 0 5-2 5-2 0 0 0-70 0-70 0 0-5-2-5-2 0 0-60-25-60-25 0 0-2-1-2-1 0 0-3 1-3 1 0 0-129 53-129 53 0 0-4 2-4 2 0 0-63-27-63-27 0 0-64 28-64 28 0 0 0 62 0 62 0 0 60 25 60 25 0 0-1 1-1 1 0 0 0 70 0 70 0 0 66 28 66 28 0 0 151-62 151-62 0 0 0-61 0-61 0 0 49-20 49-20m-70-81c0 0 0 44 0 44 0 0-1 0-1 0 0 0 0 1 0 1 0 0-113 46-113 46 0 0 0-44 0-44 0 0 113-47 113-47 0 0 0 1 0 1 0 0 1-1 1-1m7 57c0 0 40 17 40 17 0 0-37 15-37 15 0 0-39-16-39-16 0 0 36-16 36-16m53-38c0 0 0 43 0 43 0 0-45-18-45-18 0 0 0-43 0-43 0 0 45 18 45 18m-151 312c68 0 126-24 174-72 48-48 72-106 72-174 0-68-24-125-72-174-48-48-106-72-174-72-68 0-125 24-174 72-48 49-72 106-72 174 0 68 24 126 72 174 49 48 106 72 174 72m0-447c55 0 103 20 142 59 39 39 59 87 59 142 0 56-20 103-59 142-39 39-87 59-142 59-55 0-103-20-142-59-39-39-59-86-59-142 0-55 20-103 59-142 39-39 87-59 142-59"/>
<glyph unicode="&#85;" d="M255 386c39 0 70-13 92-38 23-24 34-56 34-95 0-38-12-69-35-94-25-26-56-38-92-38-27 0-52 8-73 25-20 17-31 40-36 71 0 0 62 0 62 0 2-29 20-44 54-44 17 0 31 7 42 22 10 15 15 35 15 60 0 26-4 46-14 59-10 14-24 21-42 21-33 0-51-15-55-44 0 0 18 0 18 0 0 0-49-48-49-48 0 0-48 48-48 48 0 0 18 0 18 0 5 31 18 54 37 70 20 17 44 25 72 25m1 116c68 0 126-24 174-72 48-48 72-106 72-174 0-68-24-125-72-174-48-48-106-72-174-72-68 0-125 24-174 72-48 49-72 106-72 174 0 68 24 126 72 174 49 48 106 72 174 72m0-447c55 0 103 20 142 59 39 39 59 87 59 142 0 56-20 103-59 142-39 39-87 59-142 59-55 0-103-20-142-59-39-39-59-86-59-142 0-55 20-103 59-142 39-39 87-59 142-59"/>
<glyph unicode="&#86;" d="M356 327c4 0 8-2 11-4 2-3 4-6 4-10 0 0 0-181 0-181 0-3-2-6-4-9-3-3-7-4-11-4 0 0-133 0-133 0-4 0-7 1-10 4-3 3-4 6-4 9 0 0 0 53 0 53 0 0-53 0-53 0-4 0-7 2-10 4-2 3-4 7-4 11 0 0 0 180 0 180 0 4 1 7 3 9 2 2 5 4 10 5 0 0 135 0 135 0 3 0 6-1 9-4 3-3 4-6 4-10 0 0 0-53 0-53 0 0 53 0 53 0m-135 0c0 0 55 0 55 0 0 0 0 40 0 40 0 0-107 0-107 0 0 0 0-154 0-154 0 0 40 0 40 0 0 0 0 100 0 100 0 4 1 7 4 10 1 1 4 2 8 4m122-182c0 0 0 155 0 155 0 0-107 0-107 0 0 0 0-155 0-155 0 0 107 0 107 0m-87 357c68 0 126-24 174-72 48-48 72-106 72-174 0-68-24-125-72-174-48-48-106-72-174-72-68 0-125 24-174 72-48 49-72 106-72 174 0 68 24 126 72 174 49 48 106 72 174 72m0-447c55 0 103 20 142 59 39 39 59 87 59 142 0 56-20 103-59 142-39 39-87 59-142 59-55 0-103-20-142-59-39-39-59-86-59-142 0-55 20-103 59-142 39-39 87-59 142-59"/>
<glyph unicode="&#87;" d="M256 398c37 0 63-13 78-41 16-28 23-61 23-101 0-39-7-72-23-100-15-27-41-41-78-41-37 0-63 14-78 41-16 28-23 61-23 100 0 40 7 73 23 101 15 28 41 41 78 41m-44-142c0-6 1-17 2-34 0 0 54 100 54 100 5 8 4 15-3 21-4 1-7 2-9 2-29 0-44-30-44-89m44-88c29 0 44 29 44 88 0 14-1 28-3 43 0 0-60-104-60-104-8-11-6-19 6-24 0-1 1-1 3-1 0 0 1 0 1-1 0 0 2 0 4-1 2 0 4 0 5 0m0 334c68 0 126-24 174-72 48-48 72-106 72-174 0-68-24-125-72-174-48-48-106-72-174-72-68 0-125 24-174 72-48 49-72 106-72 174 0 68 24 126 72 174 49 48 106 72 174 72m0-447c55 0 103 20 142 59 39 39 59 87 59 142 0 56-20 103-59 142-39 39-87 59-142 59-55 0-103-20-142-59-39-39-59-86-59-142 0-55 20-103 59-142 39-39 87-59 142-59"/>
<glyph unicode="&#88;" d="M288 454c58 0 107-21 148-62 40-41 61-90 61-148 0-58-21-108-61-149-41-41-90-61-148-61-49 0-92 15-129 45 0 0 36 38 36 38 28-21 59-31 93-31 43 0 80 15 110 46 31 31 46 68 46 112 0 43-15 81-46 111-30 31-67 46-110 46-43 0-79-14-110-44-31-30-46-66-47-108 0 0 73 0 73 0 0 0-94-105-94-105 0 0-95 105-95 105 0 0 64 0 64 0 1 56 21 105 62 145 41 40 90 60 147 60"/>
<glyph unicode="&#89;" d="M256 492c65 0 120-24 166-70 46-46 70-101 70-166 0-65-24-120-70-166-46-46-101-70-166-70-65 0-120 24-166 70-46 46-70 101-70 166 0 65 24 120 70 166 46 46 101 70 166 70m0-313c21 0 39 8 54 23 15 15 23 33 23 54 0 22-8 40-22 55-15 14-33 22-55 22-21 0-39-8-54-23-15-15-23-33-23-54 0-21 8-39 23-54 15-15 33-23 54-23"/>
<glyph unicode="&#90;" d="M499 452c5 7 8 6 8-2 0 0 0-394 0-394 0 0-494 0-494 0-4 0-6 2-7 4-1 2-1 5 2 9 0 0 118 147 118 147 7 8 14 8 20 1 0 0 38-34 38-34 4-2 7-4 11-3 4 0 7 2 9 5 0 0 81 122 81 122 5 9 12 10 19 2 0 0 57-53 57-53 7-7 14-6 20 2 0 0 118 194 118 194"/>
<glyph unicode="&#48;" d="M435 486c8 0 14-2 19-7 4-5 7-11 7-18 0 0 0-435 0-435 0 0-103 0-103 0 0 0 0 435 0 435 0 17 7 25 21 25 0 0 56 0 56 0m-153-153c7 0 13-3 18-8 5-5 7-11 7-18 0 0 0-281 0-281 0 0-102 0-102 0 0 0 0 281 0 281 0 17 7 26 20 26 0 0 57 0 57 0m-154-154c8 0 14-2 18-7 5-6 8-12 8-18 0 0 0-128 0-128 0 0-103 0-103 0 0 0 0 128 0 128 0 17 7 25 21 25 0 0 56 0 56 0"/>
<glyph unicode="&#49;" d="M17 222c-14 4-20 13-16 29 3 14 12 20 27 16 0 0 50-12 50-12 0 0-26-41-26-41 0 0-35 8-35 8m455-6c4 4 10 6 16 6 7-1 12-3 16-8 11-11 11-22-1-33 0 0-128-115-128-115-5-4-10-6-16-6-5 0-9 2-14 5 0 0-146 112-146 112 0 0-28 8-28 8 0 0 26 40 26 40 0 0 18-4 18-4 4-1 7-2 8-4 0 0 135-104 135-104 0 0 114 103 114 103m-251 112c0 0-178-280-178-280-4-8-11-12-20-12-4 0-8 2-12 5-5 3-9 8-10 14-1 7 0 12 3 17 0 0 191 300 191 300 3 6 7 9 14 11 6 2 12 1 19-3 0 0 125-80 125-80 0 0 115 166 115 166 4 6 9 9 15 10 6 1 12-1 17-5 13-8 15-18 6-31 0 0-128-185-128-185-9-12-19-14-32-6 0 0-125 79-125 79"/>
<glyph unicode="&#50;" d="M229 471c0 0 0-188 0-188 0 0-188 0-188 0 6 49 27 92 62 127 35 35 77 56 126 61m55 0c53-7 97-31 133-71 36-41 54-88 54-143 0-59-21-110-63-153-42-42-93-63-153-63-55 0-102 18-142 54-41 36-65 80-72 134 0 0 217 0 217 0 7 0 13 3 18 8 5 4 8 10 8 18 0 0 0 216 0 216"/>
<glyph unicode="&#51;" d="M148 200c0 0 180 0 180 0 0 0 1 0 3 1 0 0 2 0 2 0 0 0 0-47 0-47 0-14-5-26-15-36-10-10-22-16-36-16 0 0-128 0-128 0 0 0-77-76-77-76 0 0 0 76 0 76 0 0-26 0-26 0-13 0-25 6-36 16-10 10-15 22-15 36 0 0 0 153 0 153 0 15 5 27 15 37 11 9 23 14 36 14 0 0 97 0 97 0 0 0 0-158 0-158m313 286c14 0 26-5 36-14 10-10 15-22 15-37 0 0 0-153 0-153 0-14-5-26-15-36-10-10-22-16-36-16 0 0-26 0-26 0 0 0 0-76 0-76 0 0-77 76-77 76 0 0-179 0-179 0 0 0 0 205 0 205 0 15 5 27 16 37 10 9 22 14 35 14 0 0 231 0 231 0"/>
<glyph unicode="&#52;" d="M212 77c-11 0-21 5-28 14 0 0-92 121-92 121-6 8-8 17-6 27 1 9 5 17 13 23 7 6 16 9 26 7 10-1 18-6 24-14 0 0 60-79 60-79 0 0 152 243 152 243 5 8 13 13 22 15 9 2 18 1 27-4 8-5 13-13 15-22 3-9 1-18-4-27 0 0-179-287-179-287-7-11-16-16-28-16 0 0-2-1-2-1"/>
<glyph unicode="&#53;" d="M399 461c10 0 18-4 25-11 8-7 11-15 11-25 0 0 0-389 0-389 0-10-3-19-11-26-7-7-15-10-25-10 0 0-286 0-286 0-10 0-18 3-25 10-8 7-11 16-11 26 0 0 0 389 0 389 0 10 3 18 11 25 7 7 15 11 25 11 0 0 30-77 30-77 0 0 226 0 226 0 0 0 30 77 30 77m-51-51c0 0-184 0-184 0 0 0-23 51-23 51 0 0 56 0 56 0 0 0 18 51 18 51 0 0 82 0 82 0 0 0 18-51 18-51 0 0 57 0 57 0 0 0-24-51-24-51"/>
<glyph unicode="&#54;" d="M256 492c65 0 120-24 166-70 46-46 70-101 70-166 0-65-24-120-70-166-46-46-101-70-166-70-65 0-120 24-166 70-46 46-70 101-70 166 0 65 24 120 70 166 46 46 101 70 166 70m0-420c51 0 95 18 131 54 35 36 53 79 53 130 0 51-18 95-53 131-36 35-80 53-131 53-51 0-94-18-130-53-36-36-54-80-54-131 0-51 18-94 54-130 36-36 79-54 130-54m18 317c0 0 0-125 0-125 0 0 77-77 77-77 0 0-25-25-25-25 0 0-87 87-87 87 0 0 0 140 0 140 0 0 35 0 35 0"/>
<glyph unicode="&#55;" d="M389 330c34 0 63-12 87-35 24-23 36-52 36-85 0-34-12-62-36-85-24-23-53-35-87-35 0 0-296 0-296 0-25 0-47 9-65 27-19 17-28 39-28 63 0 25 9 47 27 65 18 17 40 26 66 26 1 0 3 0 5 0 3 0 5-1 5-1 0 4-1 11-1 20 0 37 14 68 40 94 27 26 59 39 97 39 30 0 58-9 82-27 23-17 39-40 48-68 9 1 16 2 20 2"/>
<glyph unicode="&#56;" d="M389 330c34 0 63-12 87-35 24-23 36-52 36-85 0-34-12-62-36-85-24-23-53-35-87-35 0 0-296 0-296 0-25 0-47 9-65 27-19 17-28 39-28 63 0 25 9 47 27 65 18 17 40 26 66 26 1 0 3 0 5 0 3 0 5-1 5-1 0 4-1 11-1 20 0 37 14 68 40 94 27 26 59 39 97 39 30 0 58-9 82-27 23-17 39-40 48-68 9 1 16 2 20 2m-98-111c5 6 7 11 7 15 0 7-5 13-15 17 0 0-2 0-2 0-9 5-16 7-20 8 0 0 26 59 26 59 2 0 3 4 3 11 0 4-2 8-4 9-6 3-12 2-18-4 0-1-6-6-15-17-10-10-20-21-31-33-12-13-19-22-23-27-4-6-6-11-6-15 0-8 5-13 15-16 0 0 2-1 2-1 3-1 9-4 19-8 0 0-26-58-26-58 0 0-1-4-1-4-1-3-1-5-1-8 0-3 1-6 4-9 6-3 12-1 17 5 34 34 57 60 69 76"/>
<glyph unicode="&#57;" d="M195 402c5-4 8-10 8-16 0-6-3-11-8-15 0 0-126-115-126-115 0 0 126-116 126-116 5-4 8-9 8-15 0-6-3-12-8-16-11-11-21-11-31 0 0 0-164 147-164 147 0 0 164 146 164 146 10 11 20 11 31 0m154 0c0 0 163-146 163-146 0 0-163-147-163-147-11-11-21-11-32 0-10 10-10 21 0 31 0 0 127 116 127 116 0 0-127 115-127 115-10 10-10 21 0 31 11 11 21 11 32 0"/>
<glyph unicode="&#33;" d="M430 256c0-25 14-45 41-62-4-14-10-28-17-42-24 6-47-2-70-23-18-20-24-43-17-70-14-6-28-13-43-18-16 28-39 42-68 42-29 0-52-14-68-42-15 5-29 12-43 18 7 28 1 51-17 70-18 18-42 24-70 17-4 9-10 23-17 42 28 18 42 41 42 68 0 25-14 46-42 63 7 20 13 34 17 42 26-6 49 2 70 23 18 19 24 42 17 70 15 7 29 13 43 17 16-27 39-41 68-41 29 0 52 14 68 41 14-4 28-10 43-17-7-27-1-50 17-70 23-21 46-29 70-23 7-14 13-28 17-42-27-17-41-38-41-63m-174-93c26 0 48 9 66 27 18 18 27 40 27 66 0 26-9 48-27 67-18 18-40 27-66 27-26 0-48-9-66-27-18-19-27-41-27-67 0-26 9-48 27-66 18-18 40-27 66-27"/>
<glyph unicode="&#34;" d="M410 435c14 0 26-5 36-15 10-10 15-22 15-36 0 0 0-179 0-179 0-14-5-26-15-36-10-10-22-15-36-15 0 0-103 0-103 0 0 0 0-77 0-77 0 0-102 77-102 77 0 0-103 0-103 0-13 0-25 5-35 15-11 10-16 22-16 36 0 0 0 179 0 179 0 14 5 26 16 36 10 10 22 15 35 15 0 0 308 0 308 0"/>
<glyph unicode="&#35;" d="M253 502c68 0 126-23 174-70 48-47 73-104 75-172 0-68-23-127-70-175-47-48-105-73-173-75-68 0-126 23-175 70-48 48-73 105-74 173-1 68 22 127 69 175 48 48 106 73 174 74m6-440c53 1 99 21 136 59 38 38 56 84 56 138-1 54-21 100-59 137-39 37-85 55-138 55-54-1-100-21-137-59-37-38-55-84-55-138 1-54 21-100 59-137 38-37 84-55 138-55m-120 79c2 9 4 20 6 34 3 14 10 36 21 66 12 30 25 52 40 67 15 15 36 28 64 39 27 11 52 18 72 22 0 0 31 5 31 5-2-9-4-20-6-34-3-14-10-36-21-66-12-30-25-52-40-67-14-14-35-27-63-38-28-11-53-18-73-22 0 0-31-6-31-6m92 142c-7-7-11-15-11-25 0-10 4-18 11-26 7-7 16-11 26-11 9 0 18 4 25 11 17 18 32 50 45 96-47-13-79-28-96-45"/>
<glyph unicode="&#36;" d="M461 435c14 0 26-5 36-15 10-10 15-22 15-36 0 0 0-256 0-256 0-14-5-26-15-36-10-10-22-15-36-15 0 0-410 0-410 0-13 0-25 5-36 15-10 10-15 22-15 36 0 0 0 256 0 256 0 14 5 26 15 36 11 10 23 15 36 15 0 0 410 0 410 0m0-307c0 0 0 154 0 154 0 0-410 0-410 0 0 0 0-154 0-154 0 0 410 0 410 0m0 230c0 0 0 26 0 26 0 0-410 0-410 0 0 0 0-26 0-26 0 0 410 0 410 0m-359-131c0 0 16 0 16 0 0 0 0-15 0-15 0 0-16 0-16 0 0 0 0 15 0 15m93-30c0 0 15 0 15 0 0 0 0 15 0 15 0 0 15 0 15 0 0 0 0 15 0 15 0 0 31 0 31 0 0 0 0-15 0-15 0 0-15 0-15 0 0 0 0-15 0-15 0 0-16 0-16 0 0 0 0-16 0-16 0 0-30 0-30 0 0 0 0 16 0 16m61-16c0 0-15 0-15 0 0 0 0 16 0 16 0 0 15 0 15 0 0 0 0-16 0-16m-77 0c0 0-31 0-31 0 0 0 0 16 0 16 0 0 31 0 31 0 0 0 0-16 0-16m16 31c0 0 0-15 0-15 0 0-16 0-16 0 0 0 0 30 0 30 0 0 31 0 31 0 0 0 0-15 0-15 0 0-15 0-15 0m-62-15c0 0 0-16 0-16 0 0-31 0-31 0 0 0 0 16 0 16 0 0 16 0 16 0 0 0 0 15 0 15 0 0 15 0 15 0 0 0 0 15 0 15 0 0 31 0 31 0 0 0 0-15 0-15 0 0-16 0-16 0 0 0 0-15 0-15 0 0-15 0-15 0"/>
<glyph unicode="&#37;" d="M256 466c52 0 94-7 127-21 34-14 49-29 47-45 0 0-37-304-37-304 0-5-6-11-17-18-11-8-28-15-50-22-22-7-45-10-70-10-25 0-48 3-70 10-21 7-38 14-49 22-12 7-18 13-18 18 0 0-37 304-37 304-1 10 5 20 18 30 14 9 35 18 62 25 28 7 59 11 94 11m0-111c25 0 48 3 70 8 22 5 39 11 50 17 12 6 17 11 17 15 0 4-5 9-17 15-11 6-28 11-50 16-22 6-45 8-70 8-25 0-48-2-70-8-22-5-39-10-50-16-12-6-17-11-17-15 0-4 5-9 17-15 11-6 28-12 50-17 22-5 45-8 70-8"/>
<glyph unicode="&#38;" d="M224 466c58 0 107-20 147-59 41-40 62-88 63-145 0 0 63 0 63 0 0 0-95-105-95-105 0 0-94 105-94 105 0 0 74 0 74 0-1 42-17 78-48 108-31 29-67 44-110 44-43 0-80-16-110-46-31-31-46-68-46-112 0-43 15-80 46-111 30-30 67-46 110-46 36 0 67 11 93 31 0 0 36-39 36-39-37-30-80-45-129-45-57 0-106 21-147 62-41 40-62 90-62 148 0 58 21 108 62 148 41 41 90 62 147 62"/>
<glyph unicode="&#39;" d="M428 183c5 7 7 7 7-1 0 0 0-51 0-51 0-25-18-48-53-69-36-21-78-31-126-31-48 0-90 10-125 31-36 21-54 44-54 69 0 0 0 51 0 51 0 3 0 5 2 5 1 1 3 0 5-4 11-17 32-32 64-44 32-11 68-17 108-17 40 0 76 6 108 17 32 12 53 27 64 44m1 130c3 6 5 6 6 0 0 0 0-59 0-59 0-23-17-43-52-58-35-16-77-24-127-24-49 0-91 8-126 24-36 15-53 35-53 58 0 0 0 59 0 59 0 7 2 7 7 0 10-15 31-28 63-38 33-10 69-15 109-15 40 0 76 5 109 15 32 10 53 23 64 38m-173 168c49 0 91-6 126-20 36-13 53-29 53-47 0 0 0-33 0-33 0-20-17-37-53-51-35-14-77-21-126-21-49 0-91 7-126 21-36 14-53 31-53 51 0 0 0 33 0 33 0 18 17 34 53 47 35 14 77 20 126 20"/>
<glyph unicode="&#40;" d="M256 486c94 0 156-15 186-45 30-30 44-91 44-185 0-94-14-156-44-186-30-30-92-44-186-44-94 0-155 14-185 44-30 30-45 92-45 186 0 94 15 155 45 185 30 30 91 45 185 45"/>
<glyph unicode="&#41;" d="M470 470c3-3 5-5 6-8 1-3 0-7-1-11-2-5-4-10-5-14-2-4-5-11-10-20-5-9-9-17-13-25-18-38-43-87-75-146-32-60-58-109-80-150 0 0-34-60-34-60 0 0-28 194-28 194 0 0-194 29-194 29 151 84 269 147 356 188 7 4 15 8 25 13 9 5 16 9 20 11 3 1 8 3 13 4 4 1 8 2 11 1 3-1 6-3 9-6m-47-49c0 0-156-143-156-143 0 0 15-120 15-120 0 0 141 263 141 263"/>
<glyph unicode="&#42;" d="M384 486c14 0 26-5 36-14 10-10 15-22 15-37 0 0 0-358 0-358 0-14-5-26-15-36-10-10-22-15-36-15 0 0-256 0-256 0-14 0-26 5-36 15-10 10-15 22-15 36 0 0 0 358 0 358 0 15 5 27 15 37 10 9 22 14 36 14 0 0 256 0 256 0m0-409c0 0 0 358 0 358 0 0-256 0-256 0 0 0 0-358 0-358 0 0 256 0 256 0"/>
<glyph unicode="&#43;" d="M0 384c0 14 5 26 15 36 11 10 23 15 36 15 0 0 410 0 410 0 14 0 26-5 36-15 10-10 15-22 15-36 0 0 0-256 0-256 0-14-5-26-15-36-10-10-22-15-36-15 0 0-410 0-410 0-13 0-25 5-36 15-10 10-15 22-15 36 0 0 0 256 0 256m461 0c0 0-410 0-410 0 0 0 0-256 0-256 0 0 410 0 410 0 0 0 0 256 0 256"/>
<glyph unicode="&#44;" d="M185 234c0 0 0 47 0 47 0 0 144 0 144 0 0 0 0-47 0-47 0 0-144 0-144 0m199 252c14 0 26-5 36-14 10-10 15-22 15-37 0 0 0-358 0-358 0-14-5-26-15-36-10-10-22-15-36-15 0 0-256 0-256 0-14 0-26 5-36 15-10 10-15 22-15 36 0 0 0 358 0 358 0 15 5 27 15 37 10 9 22 14 36 14 0 0 256 0 256 0m0-409c0 0 0 358 0 358 0 0-256 0-256 0 0 0 0-358 0-358 0 0 256 0 256 0m-56 303c0 0 0-45 0-45 0 0-144 0-144 0 0 0 0 45 0 45 0 0 144 0 144 0m0-201c0 0 0-45 0-45 0 0-144 0-144 0 0 0 0 45 0 45 0 0 144 0 144 0"/>
<glyph unicode="&#45;" d="M384 486c14 0 26-5 36-14 10-10 15-22 15-37 0 0 0-358 0-358 0-14-5-26-15-36-10-10-22-15-36-15 0 0-256 0-256 0-14 0-26 5-36 15-10 10-15 22-15 36 0 0 0 358 0 358 0 15 5 27 15 37 10 9 22 14 36 14 0 0 256 0 256 0m-236-106c0 0 0-45 0-45 0 0 216 0 216 0 0 0 0 45 0 45 0 0-216 0-216 0m216-246c0 0 0 45 0 45 0 0-216 0-216 0 0 0 0-45 0-45 0 0 216 0 216 0m0 100c0 0 0 47 0 47 0 0-214 0-214 0 0 0 0-47 0-47 0 0 214 0 214 0"/>
<glyph unicode="&#46;" d="M497 323c13-4 18-12 15-24 0 0-77-285-77-285-1-5-4-9-9-11-5-3-10-3-15-2 0 0-208 56-208 56-6 2-10 5-13 10-2 4-3 9-2 14 0 0 13 47 13 47 0 0-92-25-92-25-14-3-23 1-26 14 0 0-82 308-82 308-3 12 1 20 14 25 0 0 233 62 233 62 5 1 10 1 15-2 5-2 8-6 9-11 0 0 34-125 34-125 0 0 191-51 191-51m-455 97c0 0 74-278 74-278 0 0 200 55 200 55 0 0-73 276-73 276 0 0-201-53-201-53m359-380c0 0 68 252 68 252 0 0-153 42-153 42 0 0 39-145 39-145 4-11-1-19-14-23 0 0-100-27-100-27 0 0-14-52-14-52 0 0 174-47 174-47"/>
<glyph unicode="&#47;" d="M256 312c16 0 29-5 40-16 11-11 16-24 16-40 0-15-5-28-16-39-11-12-24-17-40-17-16 0-29 5-40 17-11 11-16 24-16 39 0 16 5 29 16 40 11 11 24 16 40 16"/>
<glyph unicode="&#58;" d="M166 312c16 0 29-5 40-16 11-11 17-24 17-40 0-15-6-28-17-39-11-12-24-17-40-17-15 0-29 5-40 16-10 11-16 24-16 40 0 16 6 29 16 40 11 11 25 16 40 16m180 0c15 0 29-5 40-16 10-11 16-24 16-40 0-15-6-28-17-39-11-12-24-17-39-17-16 0-29 5-40 16-11 11-17 24-17 40 0 16 6 29 17 40 11 11 24 16 40 16"/>
<glyph unicode="&#59;" d="M77 312c16 0 29-5 40-16 11-11 16-24 16-40 0-15-5-28-16-39-11-12-24-17-40-17-16 0-29 5-40 17-11 11-17 24-17 39 0 16 6 29 17 40 11 11 24 16 40 16m179 0c16 0 29-5 40-16 11-11 16-24 16-40 0-15-5-28-17-39-11-12-24-17-39-17-15 0-28 5-39 17-12 11-17 24-17 39 0 16 5 29 16 40 11 11 24 16 40 16m179 0c16 0 29-5 40-16 11-11 17-24 17-40 0-15-6-28-17-39-11-12-24-17-40-17-15 0-29 5-40 17-11 11-16 24-16 39 0 16 5 29 16 40 11 11 25 16 40 16"/>
<glyph unicode="&#60;" d="M425 264c0 0-169-194-169-194 0 0-169 194-169 194 0 0 98 0 98 0 0 0 0 179 0 179 0 0 142 0 142 0 0 0 0-179 0-179 0 0 98 0 98 0"/>
<glyph unicode="&#61;" d="M451 264c0 0-195-194-195-194 0 0-195 194-195 194 0 0 99 0 99 0 0 0 0 179 0 179 0 0 192 0 192 0 0 0 0-179 0-179 0 0 99 0 99 0"/>
<glyph unicode="&#62;" d="M256 492c65 0 120-24 166-70 46-46 70-101 70-166 0-65-24-120-70-166-46-46-101-70-166-70-65 0-120 24-166 70-46 46-70 101-70 166 0 65 24 120 70 166 46 46 101 70 166 70m0-420c51 0 94 18 130 54 36 36 54 79 54 130 0 51-18 95-54 131-36 35-79 53-130 53-51 0-94-18-130-53-36-36-54-80-54-131 0-51 18-94 54-130 36-36 79-54 130-54m46 283c0 0 0-105 0-105 0 0 57 0 57 0 0 0-103-97-103-97 0 0-103 97-103 97 0 0 57 0 57 0 0 0 0 105 0 105 0 0 92 0 92 0"/>
<glyph unicode="&#63;" d="M374 358c0 0-118-204-118-204 0 0-118 204-118 204 0 0 236 0 236 0"/>
<glyph unicode="&#64;" d="M396 293c0 0-120-115-120-115-6-6-12-9-20-9-8 0-14 3-20 9 0 0-120 115-120 115-6 5-8 12-8 21 0 8 2 15 8 21 13 13 26 13 40 0 0 0 100-96 100-96 0 0 100 96 100 96 14 13 27 13 40 0 6-6 8-13 8-21 0-9-2-16-8-21"/>
<glyph unicode="&#91;" d="M67 369c0 0 189-183 189-183 0 0 190 183 190 183 8 9 16 9 25 0 9-8 9-16 0-25 0 0-203-201-203-201-7-7-15-7-24 0 0 0-203 201-203 201-9 9-9 17 0 25 8 8 17 8 26 0"/>
<glyph unicode="&#93;" d="M344 317c8 9 16 9 25 0 9-7 9-15 0-24 0 0-101-98-101-98-7-8-15-8-24 0 0 0-101 98-101 98-9 9-9 17 0 24 9 9 17 9 26 0 0 0 87-79 87-79 0 0 88 79 88 79"/>
<glyph unicode="&#94;" d="M384 128c0 0-128-123-128-123 0 0-128 123-128 123 0 0 83 0 83 0 0 0 0 379 0 379 0 0 90 0 90 0 0 0 0-379 0-379 0 0 83 0 83 0"/>
<glyph unicode="&#95;" d="M495 178c7-3 11-9 14-16 3-8 4-15 2-21 0 0-14-79-14-79-2-6-6-12-12-16-6-5-13-7-20-7 0 0-418 0-418 0-8 0-14 2-21 7-6 4-9 10-11 16 0 0-14 79-14 79-4 17 2 29 16 37 0 0 81 55 81 55 0 0 50 0 50 0 0 0-87-66-87-66 0 0 91 0 91 0 3 0 5-1 7-4 0 0 20-57 20-57 0 0 154 0 154 0 0 0 20 57 20 57 3 3 5 4 6 4 0 0 91 0 91 0 0 0-87 66-87 66 0 0 51 0 51 0 0 0 81-55 81-55m-106 165c0 0-133-125-133-125 0 0-133 125-133 125 0 0 85 0 85 0 0 0 0 131 0 131 0 0 97 0 97 0 0 0 0-131 0-131 0 0 84 0 84 0"/>
<glyph unicode="&#96;" d="M245 323c-11 18-22 37-34 55-12 19-22 33-29 43-7 10-11 16-12 17-28-13-52-32-71-57-20-25-33-52-40-83 63 0 124 8 186 25m25-68c3 1 5 2 8 2-4 10-9 21-17 35-62-19-131-29-206-29 0 0 0-7 0-7 0-51 17-96 51-134 2 3 4 6 7 11 3 4 10 13 20 25 10 13 21 25 33 36 11 10 27 22 45 33 19 12 39 21 59 28m-138-157c-1 0-1 1-2 1 0 0-2 2-2 2 0 0 4-3 4-3m76 354l0 0m181-44c-39 33-83 50-133 50-16 0-32-2-47-6 28-37 53-76 75-117 47 18 82 41 104 72 0 0 1 1 1 1m-133-388c-65 0-120 24-166 70-46 46-70 101-70 166 0 65 24 120 70 166 46 46 101 70 166 70 65 0 120-24 166-70 46-46 70-101 70-166 0-65-24-120-70-166-46-46-101-70-166-70m35 203c-74-25-126-66-158-124 0 0-1-1-1-1 38-28 79-43 124-43 27 0 53 6 79 17-8 47-23 98-43 152 0 0-1-1-1-1m8 81c4-8 9-18 13-29 1 0 2-2 3-4 1-3 2-4 2-6 23 3 45 4 66 2 22-1 39-3 52-5 13-2 20-3 22-4 0 47-15 89-45 126 0 0-4-5-4-5-3-4-8-8-14-14-6-6-13-12-21-18-8-7-19-14-32-22-13-8-27-15-42-21m31-71c17-50 30-98 39-143 47 32 76 76 86 134-3 2-10 3-20 6-11 2-26 4-45 6-20 2-40 1-60-3"/>
<glyph unicode="&#123;" d="M263 257c-15-5-29-12-42-23-13-10-22-18-28-26-6-7-10-13-13-18-16 20-24 42-24 66 0 0 0 2 0 2 36 0 70 5 102 14 0 0 7-14 7-14 0 0-2-1-2-1m59 76c-11-15-28-26-52-35-9 16-20 35-36 56 5 2 12 2 22 2 25 0 46-8 66-23m-126-156c13 27 39 48 77 62 12-32 19-57 21-75-12-6-25-8-38-8-23 0-43 7-60 21m53 114c-32-8-62-12-90-12 6 31 24 54 53 68 11-14 23-32 37-56m46-47c4 0 10 1 19 1 11 0 24-2 41-5-5-28-19-50-42-66-2 19-8 42-18 70m-39 258c68 0 126-24 174-72 48-48 72-106 72-174 0-68-24-125-72-174-48-48-106-72-174-72-68 0-125 24-174 72-48 49-72 106-72 174 0 68 24 126 72 174 49 48 106 72 174 72m0-366c33 0 62 12 86 36 23 23 35 51 35 84 0 33-12 62-35 86-24 23-53 35-86 35-33 0-62-12-85-35-23-24-35-53-35-86 0-33 12-61 35-84 23-24 52-36 85-36m24 145c24 9 43 22 55 37 14-17 21-37 21-59-16 3-31 4-46 4-10 0-17 0-22-1-1 1-1 2-1 2 0 2-1 2-1 2-1 2-2 4-3 7-2 3-3 6-3 8"/>
<glyph unicode="&#124;" d="M478 232c9-15 11-31 7-49 0 0-17-94-17-94-1-7-4-13-10-18-6-5-13-8-20-8 0 0-365 0-365 0-7 0-13 3-19 8-6 5-10 11-10 18 0 0-18 94-18 94-3 18 0 34 7 49 0 0 81 192 81 192 8 16 20 23 37 23 0 0 209 0 209 0 17 0 30-7 38-23 0 0 80-192 80-192m-35-67c1 7-1 14-5 19-4 6-10 9-18 9 0 0-329 0-329 0-8 0-14-3-18-9-4-5-6-12-5-19 0 0 7-38 7-38 1-8 4-14 10-19 6-5 13-8 20-8 0 0 302 0 302 0 8 0 14 3 20 8 6 5 9 11 10 19 0 0 6 38 6 38"/>
<glyph unicode="&#125;" d="M157 489c0 0 99-80 99-80 0 0-145-95-145-95 0 0-101 84-101 84 0 0 147 91 147 91m188-386c3 0 5 1 6 1 0 0 60 40 60 40 0 0 0-23 0-23 0 0-155-97-155-97 0 0-155 97-155 97 0 0 0 23 0 23 0 0 61-40 61-40 1 0 3-1 6-1 3 0 6 1 7 2 0 0 81 68 81 68 0 0 82-68 82-68 1-1 4-2 7-2m157 295c0 0-100-84-100-84 0 0-146 95-146 95 0 0 100 80 100 80 0 0 146-91 146-91m-246-175c0 0 146 91 146 91 0 0 90-71 90-71 0 0-145-95-145-95 0 0-91 75-91 75m-90-75c0 0-144 95-144 95 0 0 89 71 89 71 0 0 145-91 145-91 0 0-90-75-90-75"/>
<glyph unicode="&#126;" d="M261 498c5-41 15-78 31-112 16-35 31-62 47-82 16-20 30-43 42-70 12-26 18-53 18-81 0-39-14-73-42-101-28-28-62-42-101-42-39 0-73 14-101 42-28 28-42 62-42 101 0 28 6 55 18 81 12 27 26 50 42 70 16 20 31 47 47 82 16 34 26 71 31 112 1 2 2 4 6 4 3 0 4-2 4-4m-21-201c0 1 0 4-1 7-2 2-5 3-8 3-2 0-4-1-6-3 0 0-20-30-20-30-11-15-19-27-25-35-5-9-11-21-17-39-6-17-9-34-9-52 0-8 3-15 8-21 6-5 13-8 21-8 20 0 30 11 30 35 0 32 7 74 21 126 1 2 2 4 3 8 1 4 2 7 3 9"/>
<glyph unicode="&#92;" d="M461 435c14 0 26-5 36-15 10-10 15-22 15-36 0 0 0-256 0-256 0-13-5-25-15-36-10-10-22-15-36-15 0 0-244 0-244 0-13 0-25 5-36 14 0 0-174 152-174 152-9 9-9 18 0 27 0 0 174 152 174 152 10 8 22 13 36 13 0 0 244 0 244 0m-72-281c0 0 37 38 37 38 0 0-65 64-65 64 0 0 65 65 65 65 0 0-37 37-37 37 0 0-65-64-65-64 0 0-65 64-65 64 0 0-37-37-37-37 0 0 65-65 65-65 0 0-65-64-65-64 0 0 37-38 37-38 0 0 65 65 65 65 0 0 65-65 65-65"/>
<glyph unicode="&#57344;" d="M444 402c0-1 1-13 2-37 2-23 4-48 5-74 1-25 1-54 0-87-2-33-5-62-10-88-5-25-14-47-26-64-13-18-28-26-47-26-52 0-86 4-99 13-9 7-12 29-9 66 0 14 7 24 19 31 11 6 23 9 35 9 0 0 17-1 17-1 0 0-2-35-2-35-4-1-10-1-19-1-7 0-11-5-13-14-1-13 6-20 21-21 0 0 44 2 44 2 13 1 18 24 14 69 0 6-3 10-9 14-5 3-11 5-17 6-6 1-15 3-25 4-11 2-19 4-24 5-10 3-18 8-24 14-6 7-11 14-14 19-3 6-5 9-5 9-1 0-3-10-5-30-2-19-7-29-15-29-15 0-39 2-71 7-33 5-52 11-59 18-12 12-22 37-32 77-9 39-14 65-14 77 0 11 10 17 30 15 0 0 59 0 59 0 27 0 40 12 40 37 0 4 0 13-1 27 0 13 0 24 0 30 0 28 7 42 20 42 31 0 52-2 62-7 6-3 11-7 15-13 3-6 6-12 6-17 0 0 2-8 2-8 0 0 104-6 104-6 3 0 8 0 13-1 5-1 11-5 20-10 8-6 12-13 12-22m-49-154c2 2 1 7-1 16-3 9-8 18-15 27-7 9-16 13-25 13-10 0-17-4-23-12-6-8-10-15-11-23-1-8-1-13 0-15 3-2 5-3 8-3 2 1 7 2 13 3 6 1 12 2 16 2 5 0 10-1 16-3 6-2 10-4 14-5 4-2 6-2 8 0m-247 158c0-8-5-12-14-12 0 0-74 0-74 0 0 0 90 88 90 88-1-47-2-72-2-76"/>
<glyph unicode="&#57345;" d="M384 108c0 0 0 28 0 28 0 0 51 42 51 42 0 0 0-96 0-96 0-7-2-13-7-18-6-5-12-8-18-8 0 0-384 0-384 0-7 0-13 3-18 8-5 5-8 11-8 18 0 0 0 282 0 282 0 7 2 13 7 18 5 5 11 7 19 7 0 0 147 0 147 0-11-8-21-16-30-25-9-9-16-15-20-20 0 0-5-6-5-6 0 0-67 0-67 0 0 0 0-230 0-230 0 0 333 0 333 0m-42 178c-57 0-98-7-124-21-26-14-53-45-82-93 0 3 0 7 1 11 0 5 2 15 4 29 3 14 7 28 12 40 4 13 12 27 22 43 10 16 22 29 36 40 14 12 32 21 55 29 23 8 48 12 76 12 0 0 0 80 0 80 0 0 170-128 170-128 0 0-170-133-170-133 0 0 0 91 0 91"/>
<glyph unicode="&#57346;" d="M256 399c31 0 62-4 91-12 29-9 53-20 72-32 19-13 36-26 51-40 14-13 25-25 32-36 7-11 10-18 10-23 0-5-3-12-10-23-7-10-18-22-32-36-15-14-32-27-51-40-19-12-43-23-72-32-29-8-60-12-91-12-31 0-62 4-91 12-29 9-53 20-72 32-19 13-36 26-51 40-14 14-25 26-32 36-7 11-10 18-10 23 0 5 3 12 10 23 7 11 18 23 32 36 15 14 32 27 51 40 19 12 43 23 72 32 29 8 60 12 91 12m0-253c31 0 58 11 80 33 23 21 34 47 34 77 0 31-11 57-34 78-22 22-49 33-80 33-31 0-58-11-80-33-23-21-34-47-34-78 0-30 11-56 34-77 22-22 49-33 80-33m0 110c3-3 9-3 19-1 10 2 18 4 26 6 7 1 11 0 12-5 0-15-5-28-17-38-11-11-24-16-40-16-16 0-29 5-40 16-11 10-16 23-16 38 0 16 5 29 16 39 11 11 24 16 40 16 5 0 6-4 5-11-1-8-3-16-6-25-3-8-2-14 1-19"/>
<glyph unicode="&#57347;" d="M384 407c0 0-73 0-73 0-4 0-9-3-13-8-3-5-5-12-5-19 0 0 0-52 0-52 0 0 91 0 91 0 0 0 0-76 0-76 0 0-91 0-91 0 0 0 0-226 0-226 0 0-87 0-87 0 0 0 0 226 0 226 0 0-78 0-78 0 0 0 0 76 0 76 0 0 78 0 78 0 0 0 0 44 0 44 0 32 10 59 30 81 20 22 45 33 75 33 0 0 73 0 73 0 0 0 0-79 0-79"/>
<glyph unicode="&#57348;" d="M256 502c68 0 126-24 174-72 48-48 72-106 72-174 0-68-24-125-72-174-48-48-106-72-174-72-68 0-126 24-174 72-48 49-72 106-72 174 0 68 24 126 72 174 48 48 106 72 174 72m58-169c0 0 0 40 0 40 0 0-36 0-36 0-16 0-28-6-38-17-11-11-16-25-16-42 0 0 0-22 0-22 0 0-39 0-39 0 0 0 0-38 0-38 0 0 39 0 39 0 0 0 0-114 0-114 0 0 44 0 44 0 0 0 0 114 0 114 0 0 46 0 46 0 0 0 0 38 0 38 0 0-46 0-46 0 0 0 0 26 0 26 0 10 3 15 10 15 0 0 36 0 36 0"/>
<glyph unicode="&#57349;" d="M421 471c15 0 28-5 39-16 11-10 16-23 16-38 0 0 0-331 0-331 0-15-5-28-16-39-11-11-24-16-39-16 0 0-83 0-83 0 0 0 0 158 0 158 0 0 58 0 58 0 0 0 0 69 0 69 0 0-58 0-58 0 0 0 0 36 0 36 0 10 5 15 14 15 0 0 44 0 44 0 0 0 0 78 0 78 0 0-49 0-49 0-25 0-46-9-63-28-17-18-26-41-26-67 0 0 0-34 0-34 0 0-53 0-53 0 0 0 0-69 0-69 0 0 53 0 53 0 0 0 0-158 0-158 0 0-167 0-167 0-15 0-28 5-39 16-11 11-16 24-16 39 0 0 0 331 0 331 0 15 5 28 16 38 11 11 24 16 39 16 0 0 330 0 330 0"/>
<glyph unicode="&#57350;" d="M31 256c0 5 2 9 7 12 0 0 191 127 191 127 7 5 13 6 19 3 5-2 8-9 8-18 0 0 0-247 0-247 0-9-3-16-8-18-6-3-12-2-19 3 0 0-191 127-191 127-5 2-7 6-7 11m232 0c0 5 3 9 7 12 0 0 185 127 185 127 6 5 13 6 18 3 6-2 8-9 8-18 0 0 0-247 0-247 0-9-2-16-8-18-5-3-12-2-18 3 0 0-185 127-185 127-4 2-7 6-7 11"/>
<glyph unicode="&#57351;" d="M474 268c5-3 7-7 7-12 0-5-2-9-7-11 0 0-190-127-190-127-8-5-14-6-19-3-5 2-8 9-8 18 0 0 0 247 0 247 0 9 3 16 8 18 5 3 11 2 19-3 0 0 190-127 190-127m-232 0c4-3 7-7 7-12 0-5-3-9-7-11 0 0-185-127-185-127-6-5-13-6-18-3-6 2-8 9-8 18 0 0 0 247 0 247 0 9 2 16 8 18 5 3 12 2 18-3 0 0 185-127 185-127"/>
<glyph unicode="&#57352;" d="M107 6c-2-7-7-8-14-4-6 3-8 9-8 17 2 35 10 73 26 116-34 53-43 107-27 162 4-11 9-24 17-40 7-16 15-29 22-41 8-12 13-17 17-15 2 1 2 15 0 42-3 27-5 55-6 85-1 30 3 57 13 81 7 15 21 31 41 48 19 17 37 29 53 36-8-16-14-32-17-49-3-16-4-29-2-40 2-10 5-15 11-16 4 0 18 21 43 62 24 40 42 61 54 62 16 1 35-4 58-15 24-11 38-22 42-33 4-8 4-22 0-41-4-18-11-33-20-42-15-15-40-26-75-32-35-6-54-10-58-12-6-4-4-9 6-18 18-16 48-19 90-10-19-27-42-47-70-58-27-12-49-18-67-20-18-1-27-3-28-5-1-8 7-17 25-27 18-11 36-13 52-8-10-19-21-33-32-43-12-9-21-15-28-17-7-3-20-5-39-6-19-1-33-3-43-4 0 0-36-115-36-115"/>
<glyph unicode="&#57353;" d="M473 392c5 2 9 2 11 0 3-3 3-6 0-10-32-47-60-84-84-109-23-26-42-41-56-46-14-5-27-6-37-1-11 4-21 11-31 19-10 8-21 15-32 20-12 6-28 5-48-2-20-7-44-21-71-44 0 0 46-180 46-180 0 0-51 0-51 0 0 0-94 369-94 369 0 0 47 17 47 17 30 22 56 37 78 44 21 7 37 7 50 2 12-6 23-15 32-27 10-11 21-23 32-36 12-13 25-23 41-32 15-8 37-12 66-10 28 2 62 10 101 26"/>
<glyph unicode="&#57354;" d="M174 26c-1 1 5 17 18 48 13 30 27 62 40 93 14 31 21 48 20 50-1 2-17 10-48 23-32 13-48 23-50 28-2 4 13 25 43 62 30 37 60 72 92 107 31 34 48 51 49 49 2-1-11-33-38-95-27-62-41-94-40-95 1-1 17-9 49-22 31-13 48-23 49-29 2-7-28-46-89-116-60-71-92-105-95-103"/>
<glyph unicode="&#57355;" d="M438 438c21-21 36-43 43-66 8-24 7-39-2-47 0 0-69-69-69-69-5-5-16-10-32-13-15-4-32-4-49-2 0 0-209-209-209-209-6-6-15-7-29-3-13 4-26 12-38 25-12 13-21 25-25 38-5 13-4 23 2 29 0 0 209 209 209 209-2 17-1 33 2 49 4 16 8 26 14 32 0 0 69 69 69 69 8 10 24 10 47 2 24-8 46-23 67-44m-229-209c10-11 24-8 40 8 16 15 19 29 8 42-5 4-12 6-20 5-8-2-16-6-22-13-7-6-11-14-12-22-1-8 1-14 6-20m172 153c10-10 21-19 34-26 13-6 24-11 32-12 8-2 13-2 14-1 1 1 0 6-2 14-2 8-6 18-13 31-7 12-15 24-26 34-10 10-21 19-33 25-13 7-23 12-31 14-7 2-12 2-13 1-2-2-2-6 0-15 2-8 6-18 13-31 7-13 15-24 25-34"/>
<glyph unicode="&#57356;" d="M143 294c0 0 0-108 0-108 0 0-92-92-92-92 0 0 0 212 0 212 0 103 48 155 143 155 0 0 118 0 118 0 0 0 108 0 108 0 0 0-160-159-160-159-2-2-4-3-5-3-3 0-5 2-6 5 0 0 0 2 0 2 0 0 0 64 0 64-34 0-53-1-58-1-32-6-48-31-48-75m226 33c0 0 92 92 92 92 0 0 0-212 0-212 0-104-48-156-143-156 0 0-118 0-118 0 0 0-107 0-107 0 0 0 160 160 160 160 1 2 2 3 4 3 3 0 5-2 6-5 0 0 0-2 0-2 0 0 0-64 0-64 34 0 53 1 58 1 32 6 48 31 48 75 0 0 0 108 0 108"/>
<glyph unicode="&#57357;" d="M126 154c-27 0-51 10-71 30-19 20-29 44-29 72 0 29 9 53 29 73 19 19 43 29 71 29 28 0 52-10 71-29 20-20 29-44 29-73 0-28-10-52-29-72-20-20-44-30-71-30m260 0c-27 0-51 10-71 30-19 20-29 44-29 72 0 29 9 53 29 73 19 19 43 29 71 29 28 0 52-10 71-29 20-20 29-44 29-73 0-28-9-52-29-72-20-20-44-30-71-30"/>
<glyph unicode="&#57358;" d="M256 502c68 0 126-24 174-72 48-48 72-106 72-174 0-68-24-125-72-174-48-48-106-72-174-72-68 0-125 24-174 72-48 49-72 106-72 174 0 68 24 126 72 174 49 48 106 72 174 72m-66-297c14 0 26 5 36 15 11 10 16 22 16 36 0 14-5 27-16 37-10 10-22 15-36 15-13 0-25-5-35-15-11-10-16-23-16-37 0-14 5-26 16-36 10-10 22-15 35-15m132 0c14 0 26 5 36 15 10 10 15 22 15 36 0 14-5 27-15 37-10 10-22 15-36 15-14 0-26-5-36-15-10-10-15-23-15-37 0-14 5-26 15-36 10-10 22-15 36-15"/>
<glyph unicode="&#57359;" d="M137 16c0 0 63 204 63 204 0 0-92 0-92 0 0 0-57-51-57-51 0 0-51 0-51 0 0 0 41 87 41 87 0 0-41 87-41 87 0 0 51 0 51 0 0 0 57-51 57-51 0 0 92 0 92 0 0 0-63 204-63 204 0 0 51 0 51 0 0 0 114-204 114-204 0 0 132 0 132 0 0 0 8 0 8 0 0 0 6-1 18-2 13-2 21-4 24-6 3-2 9-6 18-11 9-4 12-10 8-17 0-11-6-19-19-25-13-6-25-9-38-10 0 0-19-1-19-1 0 0-132 0-132 0 0 0-114-204-114-204 0 0-51 0-51 0"/>
<glyph unicode="&#57360;" d="M388 461c0 0 73-80 73-80 0 0 0-279 0-279 0-13-5-25-15-35-10-11-22-16-36-16 0 0-308 0-308 0-13 0-25 5-35 16-11 10-16 22-16 35 0 0 0 308 0 308 0 14 5 26 16 36 10 10 22 15 35 15 0 0 286 0 286 0m-30-154c0 0 0 128 0 128 0 0-204 0-204 0 0 0 0-128 0-128 0-7 2-13 7-18 5-5 11-7 18-7 0 0 154 0 154 0 7 0 13 2 18 7 5 5 7 11 7 18m-25 103c0 0 0-103 0-103 0 0-51 0-51 0 0 0 0 103 0 103 0 0 51 0 51 0"/>
<glyph unicode="&#57361;" d="M420 410c0-28-13-46-38-57-2-20-7-37-14-51-8-15-18-27-32-36-13-9-25-15-34-19-10-4-23-9-39-14-14-4-25-8-32-11-7-3-15-7-24-12-9-6-16-12-20-21-4-8-6-18-8-30 24-11 36-29 36-57 0-17-6-31-18-43-12-12-26-18-43-18-17 0-32 6-44 18-12 12-18 26-18 43 0 27 12 46 37 58 0 0 0 193 0 193-25 12-37 31-37 57 0 17 6 31 18 43 12 12 27 18 44 18 17 0 31-6 43-18 12-12 18-26 18-43 0-26-12-45-37-57 0 0 0-104 0-104 14 10 37 20 71 31 20 6 34 11 43 14 9 4 17 11 26 21 8 11 13 24 15 39-24 11-36 30-36 56 0 17 6 31 18 43 12 12 26 18 43 18 17 0 32-6 44-18 12-12 18-26 18-43m-301 0c0-10 3-18 10-25 7-7 15-10 25-10 9 0 18 3 25 10 7 7 10 15 10 25 0 10-3 18-10 25-7 7-16 10-25 10-10 0-18-3-25-10-7-7-10-15-10-25m35-342c9 0 18 3 25 10 7 7 10 15 10 24 0 11-3 19-10 26-7 7-16 10-25 10-10 0-18-3-25-10-7-7-10-15-10-26 0-9 3-17 10-24 7-7 15-10 25-10m204 307c10 0 18 3 25 10 8 7 11 15 11 25 0 10-3 18-11 25-7 7-15 10-25 10-9 0-17-3-24-10-7-7-10-15-10-25 0-10 3-18 10-25 7-7 15-10 24-10"/>
<glyph unicode="&#57362;" d="M358 138c17 0 32-6 44-18 12-12 18-26 18-43 0-17-6-32-18-44-12-12-27-18-44-18-27 0-46 13-56 38 0 0-84 0-84 0-30 0-52 9-67 28-15 18-22 38-22 60 0 0 0 238 0 238-25 11-37 30-37 56 0 17 6 32 18 44 12 12 27 18 44 18 17 0 31-6 43-18 12-12 18-27 18-44 0-26-12-45-37-56 0 0 0-58 0-58 0-27 13-40 40-40 0 0 84 0 84 0 10 24 29 36 56 36 17 0 32-6 44-17 12-12 18-27 18-44 0-17-6-32-18-44-12-11-27-17-44-17-27 0-46 12-56 37 0 0-84 0-84 0-14 0-28 3-40 9 0 0 0-100 0-100 0-26 13-40 40-40 0 0 84 0 84 0 10 25 29 37 56 37m0 154c-9 0-18-4-25-10-7-7-10-16-10-26 0-10 3-18 10-25 7-6 16-10 25-10 10 0 18 4 25 10 8 7 11 15 11 25 0 10-3 19-11 26-7 6-15 10-25 10m-240 143c0-9 3-18 11-24 7-7 15-11 25-11 9 0 18 4 25 11 7 6 10 15 10 24 0 10-3 19-10 26-7 7-16 10-25 10-10 0-18-3-25-10-8-7-11-16-11-26m240-393c10 0 18 3 25 10 8 7 11 15 11 25 0 10-3 19-11 25-7 7-15 11-25 11-9 0-18-4-25-11-7-6-10-15-10-25 0-10 3-18 10-25 7-7 16-10 25-10"/>
<glyph unicode="&#57363;" d="M281 160c24-12 36-31 36-58 0-17-6-31-17-43-12-12-27-18-44-18-17 0-32 6-44 18-11 12-17 26-17 43 0 27 12 46 36 58 0 0 0 193 0 193-24 12-36 31-36 57 0 17 6 31 17 43 12 12 27 18 44 18 17 0 32-6 44-18 11-12 17-26 17-43 0-26-12-45-36-57 0 0 0-193 0-193m-60 250c0-10 4-18 10-25 7-7 15-10 25-10 10 0 18 3 25 10 7 7 11 15 11 25 0 10-4 18-11 25-7 7-15 10-25 10-10 0-18-3-25-10-6-7-10-15-10-25m35-342c10 0 18 3 25 10 7 7 11 15 11 24 0 11-4 19-11 26-7 7-15 10-25 10-10 0-18-3-25-10-6-7-10-15-10-26 0-9 4-17 10-24 7-7 15-10 25-10"/>
<glyph unicode="&#57364;" d="M215 410c0-26-12-45-37-57 0 0 0-193 0-193 25-12 37-31 37-58 0-17-6-31-18-43-12-12-26-18-43-18-17 0-32 6-44 18-12 12-18 26-18 43 0 27 12 46 37 58 0 0 0 193 0 193-25 12-37 31-37 57 0 17 6 31 18 43 12 12 27 18 44 18 17 0 31-6 43-18 12-12 18-26 18-43m-26-308c0 11-3 19-10 26-7 7-16 10-25 10-10 0-18-3-25-10-7-7-10-15-10-26 0-9 3-17 10-24 7-7 15-10 25-10 9 0 18 3 25 10 7 7 10 15 10 24m-35 273c9 0 18 3 25 10 7 7 10 15 10 25 0 10-3 18-10 25-7 7-16 10-25 10-10 0-18-3-25-10-7-7-10-15-10-25 0-10 3-18 10-25 7-7 15-10 25-10m229-215c25-12 37-31 37-58 0-17-6-31-18-43-12-12-27-18-44-18-17 0-31 6-43 18-12 12-18 26-18 43 0 27 12 46 37 58 0 0 0 193 0 193-25 12-37 31-37 57 0 17 6 31 18 43 12 12 26 18 43 18 17 0 32-6 44-18 12-12 18-26 18-43 0-26-12-45-37-57 0 0 0-193 0-193m-59 250c0-10 3-18 10-25 7-7 15-10 24-10 10 0 18 3 25 10 8 7 11 15 11 25 0 10-3 18-11 25-7 7-15 10-25 10-9 0-17-3-24-10-7-7-10-15-10-25m34-342c10 0 18 3 25 10 8 7 11 15 11 24 0 11-3 19-11 26-7 7-15 10-25 10-9 0-17-3-24-10-7-7-10-15-10-26 0-9 3-17 10-24 7-7 15-10 24-10"/>
<glyph unicode="&#57365;" d="M460 134c24-11 37-31 37-57 0-17-6-32-18-44-12-12-27-18-44-18-17 0-31 6-43 18-12 12-18 27-18 44 0 26 12 46 37 57 0 0 0 59 0 59 0 26-13 39-39 39 0 0-51 0-51 0-16 0-29 2-40 7 0 0 0-105 0-105 24-11 36-31 36-57 0-17-6-32-17-44-12-12-27-18-44-18-17 0-32 6-44 18-11 12-17 27-17 44 0 26 12 46 36 57 0 0 0 105 0 105-10-5-23-7-38-7 0 0-52 0-52 0-11 0-20-3-27-9-6-7-10-12-11-17-1-5-2-9-2-13 0 0 0-59 0-59 25-11 37-31 37-57 0-17-6-32-18-44-12-12-26-18-43-18-17 0-32 6-44 18-12 12-18 27-18 44 0 26 13 46 37 57 0 0 0 59 0 59 0 21 8 41 22 60 15 18 37 28 67 28 0 0 52 0 52 0 25 0 38 8 38 26 0 0 0 72 0 72-24 11-36 30-36 56 0 17 6 32 17 44 12 12 27 18 44 18 17 0 32-6 44-18 11-12 17-27 17-44 0-26-12-45-36-56 0 0 0-72 0-72 0-18 13-26 40-26 0 0 51 0 51 0 29 0 51-10 66-28 14-19 22-39 22-60 0 0 0-59 0-59m-347-57c0 10-4 19-11 25-7 7-16 11-25 11-10 0-18-4-25-11-7-6-10-15-10-25 0-10 3-18 10-25 7-7 15-10 25-10 9 0 18 3 25 10 7 7 11 15 11 25m108 358c0-9 4-18 10-24 7-7 15-11 25-11 10 0 18 4 25 11 7 6 11 15 11 24 0 10-4 19-11 26-7 7-15 10-25 10-10 0-18-3-25-10-6-7-10-16-10-26m71-358c0 10-4 19-11 25-7 7-15 11-25 11-10 0-18-4-25-11-6-6-10-15-10-25 0-10 4-18 10-25 7-7 15-10 25-10 10 0 18 3 25 10 7 7 11 15 11 25m143-35c10 0 18 3 25 10 7 7 11 15 11 25 0 10-4 19-11 25-7 7-15 11-25 11-9 0-18-4-24-11-7-6-11-15-11-25 0-10 4-18 11-25 6-7 15-10 24-10"/>
<glyph unicode="&#57366;" d="M488 333c11 0 18-2 21-6 3-4 4-11 3-19 0 0-22-231-22-231 0-8-2-15-6-19-3-5-10-7-21-7 0 0-413 0-413 0-18 0-27 9-28 26 0 0-22 231-22 231-1 8 0 15 3 19 3 4 10 6 21 6 0 0 464 0 464 0m-17 56c0 0 5-20 5-20 0 0-433 0-433 0 0 0 7 67 7 67 2 7 5 13 10 18 6 4 12 7 19 7 0 0 84 0 84 0 18 0 32-6 44-18 0 0 15-15 15-15 11-12 26-18 44-18 0 0 174 0 174 0 7 0 14-2 20-7 6-4 10-8 11-14"/>
<glyph unicode="&#57367;" d="M302 206c-72 0-128-8-170-23-42-16-77-49-106-101 1 7 3 16 6 27 3 11 12 31 26 60 14 29 30 54 49 76 19 22 45 42 80 60 34 18 73 27 115 27 0 0 0 98 0 98 0 0 184-165 184-165 0 0-184-171-184-171 0 0 0 112 0 112"/>
<glyph unicode="&#57368;" d="M208 168c11 19 48 68 109 145 62 78 95 116 100 113 4-2-13-50-49-142-37-93-61-149-71-167-17-30-40-36-70-19-29 17-36 41-19 70m48 194c-57 0-106-21-145-65-40-43-60-96-60-159 0-10 1-18 1-23 1-8-1-14-6-19-5-5-10-8-17-9-7-1-13 1-19 6-5 5-8 11-9 18 0 2 0 7 0 13-1 6-1 11-1 14 0 77 25 143 74 196 50 53 110 80 182 80 25 0 47-3 69-10 0 0-36-44-36-44-14 2-25 2-33 2m185-31c47-53 71-117 71-193 0-13 0-22-1-28-1-7-3-13-8-17-5-5-11-7-18-7 0 0-2 0-2 0-7 1-13 5-18 10-4 6-6 12-5 19 0 4 1 12 1 23 0 51-14 97-41 137 2 5 5 14 10 27 5 12 9 22 11 29"/>
<glyph unicode="&#57369;" d="M338 223c9 0 16-4 23-13 6-9 10-20 10-33 0-13-4-24-10-33-7-8-14-13-23-13-10 0-18 5-24 13-7 9-10 20-10 33 0 13 3 24 10 33 6 9 14 13 24 13m116 120c25-27 38-60 38-99 0-26-3-48-9-68-6-21-13-37-22-50-9-12-20-23-33-33-13-9-25-16-36-21-11-4-23-8-37-10-14-2-25-4-32-4-7 0-15-1-23-1-2 0-8 0-18 0-11-1-19-1-26-1-7 0-15 0-26 1-10 0-16 0-18 0-8 0-16 1-23 1-7 0-18 2-32 4-14 2-26 6-37 10-11 5-23 12-36 21-13 10-24 21-33 33-9 13-16 29-22 50-6 20-9 42-9 68 0 39 13 72 38 99-2 1-3 15 0 41 2 26 8 50 17 72 31-4 70-21 116-54 16 5 38 7 65 7 29 0 50-2 65-7 21 15 41 26 60 35 20 9 34 14 43 16 0 0 13 3 13 3 9-22 15-46 17-72 3-26 2-40 0-41m-197-263c57 0 100 7 129 20 29 14 43 42 43 84 0 25-9 45-28 62-9 9-20 14-33 16-12 2-32 2-58 0-26-2-43-3-53-3 0 0-1 0-1 0 0 0-1 0-1 0-11 0-25 1-43 2-17 1-31 2-40 3-10 0-21-1-33-4-11-3-21-7-28-14-18-16-27-36-27-62 0-42 14-70 43-84 29-13 71-20 128-20 0 0 2 0 2 0m-82 143c9 0 17-4 23-13 7-9 10-20 10-33 0-13-3-24-10-33-6-8-14-13-23-13-9 0-17 5-24 13-6 9-10 20-10 33 0 13 4 24 10 33 7 9 15 13 24 13"/>
<glyph unicode="&#57370;" d="M256 258c5 0 13 0 22 1 8 1 15 1 20 1 6 0 11-1 17-2 6-1 11-4 15-7 9-9 13-19 13-31 0-22-7-36-22-43-15-7-36-10-65-10-29 0-50 3-65 10-15 7-22 21-22 43 0 12 4 22 13 31 4 3 9 6 15 7 6 1 11 2 17 2 5 0 12 0 20-1 9-1 17-1 22-1m-41-65c5 0 9 2 12 7 3 4 4 10 4 16 0 16-5 24-16 24-11 0-16-8-16-24 0-6 1-12 4-16 3-5 7-7 12-7m82 0c5 0 9 2 12 7 4 4 5 10 5 16 0 7-1 13-5 17-3 4-7 7-12 7-11 0-16-8-16-24 0-6 1-12 4-16 3-5 7-7 12-7m-41 309c68 0 126-24 174-72 48-48 72-106 72-174 0-68-24-125-72-174-48-48-106-72-174-72-68 0-125 24-174 72-48 49-72 106-72 174 0 68 24 126 72 174 49 48 106 72 174 72m23-346c64 0 96 31 96 94 0 19-7 36-20 50 2 1 2 8 1 21-1 13-4 25-9 36-15-2-34-11-58-26-7 2-18 3-33 3-14 0-25-1-33-3-10 7-20 12-30 17-10 4-17 7-21 8 0 0-7 1-7 1-5-11-8-23-9-36-1-13-1-20 1-21-13-14-20-31-20-50 0-63 32-94 96-94 0 0 23 0 23 0 0 0 23 0 23 0"/>
<glyph unicode="&#57371;" d="M256 502c68 0 126-24 174-72 48-49 72-106 72-174 0-68-24-126-72-174-48-48-106-72-174-72-68 0-125 24-174 72-48 48-72 106-72 174 0 68 24 125 72 174 49 48 106 72 174 72m210-246c0 45-13 86-40 122-27 37-61 62-103 77-7-9-9-14-9-17 2-13 5-21 10-26 4-4 9-5 15-3 0 0 16 6 16 6 0 0 4 0 11 1 7-8 7-16 0-24-8-8-16-18-23-29-8-11-8-24-1-39 12-22 28-33 49-33 10-1 17-7 22-19 5-11 8-22 9-33 3-28 1-52-7-72-8-15-5-28 7-39 29 38 44 81 44 128m-239 207c-38-5-72-19-102-43-29-24-51-54-65-89 2 0 6-1 12-1 5-1 10-1 14-2 4 0 9-1 13-2 5-1 9-2 13-4 3-2 5-4 6-7 1-4-1-11-7-23-7-11-10-21-10-31 0-10 7-20 20-29 13-8 19-16 19-23 0-10 2-21 4-35 3-14 4-21 4-22 0-5 7-14 19-28 12-14 21-22 27-22 3 0 5 4 5 12 1 7 0 16-1 27-1 11-1 18-1 21 0 11 2 23 7 38 4 14 14 26 30 36 16 9 25 17 28 23 6 12 7 22 5 31-3 10-6 17-9 22-3 6-9 11-17 15-9 4-16 7-21 8-6 2-12 4-19 5-7 1-11 2-12 2-5 2-12 3-21 4-9 0-15-1-18-2-4-1-9 1-14 6-6 5-9 10-9 15 0 3 3 8 8 13 5 6 11 12 18 19 6 7 11 12 14 16 3 4 6 8 9 10 3 3 6 6 11 9 4 3 9 6 14 10 1 2 5 5 13 9 7 5 11 8 13 12m-37-407c23-7 45-10 66-10 44 0 82 12 116 35-9 15-29 21-61 17-8 0-19-3-33-8-14-6-22-8-24-9-25-6-38-8-39-8-4-1-8-3-13-7-5-5-9-8-12-10"/>
<glyph unicode="&#57372;" d="M305 492c52 0 96-19 132-55 36-36 55-80 55-131 0-48-17-90-50-126-32-36-73-56-120-59-12-30-31-54-58-72-26-19-56-29-88-29-43 0-80 16-110 47-30 30-46 67-46 109 0 33 10 62 28 89 19 26 42 45 72 57 4 47 24 88 59 120 36 33 78 50 126 50m-129-419c40 0 70 17 89 51-35 7-66 24-91 50-26 25-43 56-50 91-34-19-51-49-51-89 0-29 10-53 30-73 20-20 44-30 73-30m2 207c6-26 18-48 36-66 18-19 40-30 66-36-1 27-11 51-31 71-20 20-44 30-71 31m154-102c30 6 55 21 74 45 19 24 29 52 29 83 0 36-13 67-38 92-26 26-56 38-92 38-31 0-58-10-82-29-25-20-39-45-45-75 43-1 79-16 108-46 30-29 45-66 46-108m-258 204c-15 0-27 5-38 15-10 11-16 23-16 37 0 15 6 28 16 38 11 10 23 15 38 15 15 0 27-5 38-15 10-10 15-23 15-38 0-14-5-26-15-37-11-10-23-15-38-15m0 82c-8 0-15-3-21-9-5-6-8-13-8-21 0-7 3-14 8-20 6-6 13-8 21-8 8 0 15 2 21 8 6 6 8 13 8 20 0 8-2 15-8 21-6 6-13 9-21 9"/>
<glyph unicode="&#57373;" d="M51 370c0 19 4 37 13 52 9 15 18 26 29 33 10 7 22 13 35 18 13 4 23 7 29 7 6 1 10 1 13 1 0 0 118 0 118 0 0 0 0-2 0-2 0-7-14-13-40-18-10 0-16-1-20-3 14-7 23-17 28-29 5-12 7-29 7-49 0-35-11-62-35-81-13-13-19-22-19-28 0-6 8-17 25-32 36-31 54-62 54-92 0-47-20-80-60-99-23-11-48-17-76-17 0 0-2 0-2 0 0 0-3 1-3 1 0-1-1-1-2-1-8 0-17 1-27 2-10 2-23 6-39 11-15 5-28 15-38 29-9 14-14 32-14 53 0 20 5 38 16 52 11 14 25 23 43 29 17 5 32 9 45 11 12 2 24 3 36 3 0 0 1 0 1 0-6 8-10 16-12 24-3 9-4 15-4 20 0 0 1 7 1 7 0 0-8 0-8 0-21 0-40 6-56 16-25 15-38 42-38 82m190-232c-2 18-9 32-22 43-14 11-31 17-53 17 0 0-8 0-8 0-22-1-42-9-59-24-15-14-23-30-21-48 1-18 10-31 27-41 17-10 37-14 61-12 23 1 42 8 56 20 14 12 20 27 19 45m-31 256c-10 37-31 56-63 56-4 0-7-1-10-1-13-5-23-15-29-32-6-17-6-35-2-55 5-17 13-32 25-43 11-11 23-17 36-17 4 0 7 0 9 1 14 4 25 15 32 33 8 18 8 38 2 58m199-89c0 0 76 0 76 0 0 0 0-48 0-48 0 0-76 0-76 0 0 0 0-77 0-77 0 0-49 0-49 0 0 0 0 77 0 77 0 0-76 0-76 0 0 0 0 48 0 48 0 0 76 0 76 0 0 0 0 77 0 77 0 0 49 0 49 0 0 0 0-77 0-77"/>
<glyph unicode="&#57374;" d="M232 326c3-11 3-20 0-30-3-9-8-14-16-16 0 0-5 0-5 0-14 0-25 10-31 30-2 11-1 20 1 28 4 8 9 13 16 15 0 1 2 1 5 1 15 0 25-9 30-28m24 176c68 0 126-24 174-72 48-48 72-106 72-174 0-68-24-125-72-174-48-48-106-72-174-72-68 0-125 24-174 72-48 49-72 106-72 174 0 68 24 126 72 174 49 48 106 72 174 72m-14-351c20 10 30 26 30 50 0 15-8 30-26 47-9 7-14 13-14 16 0 4 4 9 11 14 11 11 17 25 17 40 0 20-6 34-18 40 0 1 2 2 5 2 3 0 4 0 5 0 14 2 20 5 20 9 0 0 0 2 0 2 0 0-59 0-59 0-4 0-10-1-17-2-7-2-16-7-27-17-11-9-16-22-16-39 0-19 6-32 19-41 8-5 17-8 29-8 0 0 3 0 3 0-2-8 1-17 8-25 0 0-1 0-1 0-47 0-71-16-71-49 0-13 5-24 15-32 9-8 18-12 25-14 7-1 14-2 20-2 0 0 2 0 2 0 0 0 2 0 2 0 13 0 26 3 38 9m130 106c0 0 0 25 0 25 0 0-39 0-39 0 0 0 0 39 0 39 0 0-25 0-25 0 0 0 0-39 0-39 0 0-39 0-39 0 0 0 0-25 0-25 0 0 39 0 39 0 0 0 0-39 0-39 0 0 25 0 25 0 0 0 0 39 0 39 0 0 39 0 39 0m-161-30c11 0 20-3 27-8 6-6 10-14 11-22 1-9-3-17-10-23-7-6-16-9-28-10-12-2-22 0-31 5-9 6-13 13-14 21 0 9 4 18 11 25 7 7 17 11 30 12 0 0 4 0 4 0"/>
<glyph unicode="&#57375;" d="M85 199c0 0 171-86 171-86 0 0 141 69 141 69-1-7-2-15-4-24-1-8-2-14-3-18-1-3-2-7-5-11-4-5-8-9-13-12-5-4-13-7-23-12-13-6-27-13-41-21-13-7-24-13-32-17-8-4-15-6-20-6-5 0-12 3-20 7-9 5-20 11-33 19-14 8-28 15-41 21-25 10-42 22-53 35-11 12-19 31-24 56m415 126c8-5 12-11 12-17 0-7-4-12-12-17 0 0-40-23-40-23 0 0-158 53-158 53-7 12-23 18-46 18-14 0-25-3-34-8-10-6-14-13-14-21 0-8 4-15 14-20 9-6 20-8 34-8 9 0 15 0 18 2 0 0 150-35 150-35 0 0-137-78-137-78-21-11-41-11-62 0 0 0-213 120-213 120-8 5-12 10-12 17 0 6 4 12 12 17 0 0 213 119 213 119 21 11 41 11 62 0 0 0 213-119 213-119m-66-227c6 40 9 71 7 93-2 23-5 38-10 47 0 0-7 11-7 11 0 0 36 19 36 19 2-2 4-7 6-14 2-7 5-24 9-52 3-27 2-61-4-101-1-9-5-14-11-15-6-1-12 0-18 3-6 3-9 6-8 9"/>
<glyph unicode="&#57376;" d="M440 407c24-22 36-49 36-80 0-32-12-59-36-81 0 0-184-169-184-169 0 0-184 169-184 169-24 22-36 49-36 81 0 31 12 58 36 80 21 19 47 29 77 29 30 0 56-10 78-29 0 0 29-27 29-27 0 0 30 27 30 27 21 19 46 29 76 29 31 0 56-10 78-29"/>
<glyph unicode="&#57377;" d="M440 406c24-22 36-49 36-80 0-32-12-58-36-80 0 0-184-169-184-169 0 0-184 169-184 169-24 22-36 48-36 80 0 31 12 58 36 80 22 19 47 29 78 29 30 0 55-10 76-29 0 0 30-27 30-27 0 0 29 27 29 27 22 19 47 29 77 29 31 0 56-10 78-29m-27-134c14 14 21 32 21 54 0 22-6 39-19 51-13 13-31 19-53 19-17 0-35-8-53-24 0 0-53-47-53-47 0 0-54 47-54 47-17 16-34 24-52 24-22 0-40-6-54-19-13-12-19-30-19-51 0-23 7-41 22-54 0 0 157-146 157-146 0 0 157 146 157 146"/>
<glyph unicode="&#57378;" d="M360 456c30-21 44-53 44-95 0-21-7-43-21-63-4-7-19-20-45-41 0 0-24-15-24-15-13-12-21-22-24-31-2-6-4-13-4-23 0-4-3-7-8-7 0 0-66 0-66 0-5 0-8 2-8 6 1 34 6 55 14 64 6 7 14 16 25 24 11 9 20 16 28 22 0 0 13 7 13 7 7 6 13 11 17 18 10 15 14 26 14 35 0 14-4 27-13 40-9 13-25 19-47 19-23 0-39-8-48-23-10-14-14-30-14-47 0 0-85 0-85 0 2 55 21 95 58 119 24 14 52 21 85 21 44 0 81-10 109-30m-110-326c15 0 27-5 37-15 10-11 15-23 14-38-1-16-6-28-16-38-11-9-23-13-38-12-15 0-28 5-38 14-9 10-14 23-13 39 0 16 6 28 16 37 10 9 23 14 38 13"/>
<glyph unicode="&#57379;" d="M253 492c65 0 120-22 167-67 46-45 70-100 72-165 0-65-22-121-68-167-45-47-100-71-165-73-65 0-121 22-167 68-47 45-71 100-72 165-1 65 21 121 67 167 46 47 101 71 166 72m-1-379c10 0 19 3 25 9 6 7 10 15 10 24 0 11-2 19-9 26-6 6-15 9-25 9 0 0-1 0-1 0-10 0-18-3-24-9-7-6-10-14-11-24 0-10 3-18 10-25 6-6 14-10 24-10 0 0 1 0 1 0m85 168c9 11 13 24 13 40 0 26-9 46-27 59-18 13-41 19-69 19-22 0-40-4-53-13-24-14-36-39-37-75 0 0 0-2 0-2 0 0 56 0 56 0 0 0 0 2 0 2 0 9 3 18 8 28 6 8 15 12 28 12 14 0 23-3 27-10 5-7 8-14 8-23 0-6-3-13-8-20-3-4-7-8-11-10 0 0-3-2-3-2-2-2-4-4-8-6-3-2-7-5-10-8-4-2-7-5-11-8-4-3-7-6-9-9-4-7-7-20-9-40 0 0 0-4 0-4 0 0 56 0 56 0 0 0 0 2 0 2 0 4 0 9 2 14 2 7 6 13 14 19 0 0 14 9 14 9 16 12 25 20 29 26"/>
<glyph unicode="&#57380;" d="M480 249c6-6 8-10 6-14-2-4-6-6-14-6 0 0-43 0-43 0 0 0 0-158 0-158 0-5 0-9 0-11-1-2-2-5-4-7-3-2-7-3-12-3 0 0-105 0-105 0 0 0 0 159 0 159 0 0-104 0-104 0 0 0 0-159 0-159 0 0-99 0-99 0-10 0-16 2-18 5-3 4-4 9-4 16 0 0 0 158 0 158 0 0-43 0-43 0-7 0-12 2-14 6-1 4 0 8 6 14 0 0 205 206 205 206 5 5 12 8 19 8 8 0 14-3 20-8 0 0 204-206 204-206"/>
<glyph unicode="&#57381;" d="M399 395c0-15-8-31-24-49-17-18-33-35-50-51-17-16-25-29-25-39 0-10 8-23 25-39 17-16 33-32 50-50 16-17 24-34 24-49 0 0 0-61 0-61 0-11-14-24-44-37-29-13-62-20-99-20-37 0-70 7-99 20-30 13-44 26-44 37 0 0 0 61 0 61 0 15 8 32 24 49 17 18 33 34 50 50 17 16 25 29 25 39 0 10-8 23-25 39-17 16-33 33-50 51-16 18-24 34-24 49 0 0 0 61 0 61 0 11 14 23 44 36 30 13 63 20 99 20 36 0 69-7 99-20 30-13 44-25 44-36 0 0 0-61 0-61m-246 58c0 0-10-8-10-8-1-2 0-5 2-7 32-17 69-26 111-26 45 0 83 8 113 25 4 4 2 9-9 16-32 18-67 27-103 27-41 0-76-9-104-27m116-197c0 6 1 12 2 17 2 5 5 11 10 17 4 6 8 10 10 13 2 2 7 7 16 15 8 9 13 13 15 15 31 31 47 52 47 62 0 0 1 26 1 26-34-19-72-28-114-28-42 0-80 9-114 28 0 0 2-26 2-26 0-11 16-31 46-62 3-2 6-6 12-11 5-5 9-9 12-11 0 0 9-10 9-10 0 0 3-4 9-11 6-7 8-10 6-10-2 0-1-4 4-12 5-8 6-12 2-12 0-3 0-7-1-10 0-3-1-6-3-9-2-3-3-6-4-8-1-3-3-5-6-9 0 0-6-8-6-8 0 0-2-2-7-8-6-5-8-8-9-7 0 0-3-3-9-9-6-5-9-8-9-8-30-30-46-51-46-62 0 0 0-34 0-34 3 1 14 5 34 12 20 6 36 14 47 22 12 8 18 18 18 29 0 11 4 16 13 16 9 0 13-5 13-16 0-11 6-21 17-29 11-8 28-16 48-22 21-7 33-11 35-12 0 0 0 34 0 34 0 10-16 31-47 62-2 2-5 5-11 10-6 6-10 10-11 11-2 2-5 5-10 10-4 5-7 8-9 11-2 3-4 6-6 10-2 5-4 8-5 12 0 4-1 8-1 12"/>
<glyph unicode="&#57382;" d="M496 281c14-15 19-27 15-37 0 0-14-79-14-79-1-7-5-13-11-17-7-4-13-7-21-7 0 0-418 0-418 0-7 0-14 3-20 7-6 4-10 10-11 17 0 0-15 79-15 79-2 11 3 23 17 37 2 3 9 9 18 19 10 10 21 21 35 34 14 14 22 22 27 26 7 8 16 12 26 12 0 0 132 0 132 0 0 0 132 0 132 0 11 0 19-4 27-12 5-5 14-14 27-26 13-12 24-24 34-33 11-10 17-17 20-20m-136-17c0 0 91 0 91 0 0 0-52 59-52 59 0 0-285 0-285 0 0 0-52-59-52-59 0 0 91 0 91 0 3 0 5-1 6-4 0 0 20-51 20-51 0 0 154 0 154 0 0 0 21 51 21 51 1 3 3 4 6 4"/>
<glyph unicode="&#57383;" d="M408 369c28 0 53-9 73-27 21-19 31-47 31-86 0-38-10-67-31-85-20-18-45-28-73-28-27 0-54 7-81 21-27 13-51 32-71 54-20-22-43-41-70-54-27-14-54-21-81-21-29 0-54 10-74 28-21 18-31 47-31 85 0 39 10 67 31 86 20 18 45 27 74 27 27 0 54-7 81-20 27-14 50-32 70-54 20 22 43 40 71 54 27 13 54 20 81 20m-303-181c21 0 43 7 65 19 23 13 43 29 58 49-15 20-34 36-57 49-23 12-44 19-66 19-38 0-58-23-58-68 0-45 20-68 58-68m303 0c38 0 58 23 58 68 0 45-20 68-58 68-22 0-44-7-66-19-23-13-42-29-57-49 15-20 34-36 57-49 22-12 44-19 66-19"/>
<glyph unicode="&#57384;" d="M318 512c17 0 29-5 38-14 9-9 14-21 14-35 0-17-7-32-20-45-14-13-30-20-49-20-16 0-29 5-38 14-9 9-13 21-12 37 0 15 6 30 18 43 12 13 28 20 49 20m-105-512c-34 0-43 30-28 91 0 0 31 130 31 130 5 19 5 29 0 29-4 0-13-3-28-9-14-7-26-13-36-20 0 0-14 23-14 23 31 26 63 48 97 64 34 17 60 25 77 25 27 0 33-28 19-83 0 0-36-136-36-136-6-22-5-33 3-33 15 0 35 10 60 31 0 0 16-21 16-21-29-29-59-52-90-67-31-16-55-24-71-24"/>
<glyph unicode="&#57385;" d="M253 492c65 0 120-22 167-67 46-45 70-100 72-165 0-65-22-121-68-167-45-47-100-71-165-73-65 0-121 22-167 68-47 45-71 100-72 165-1 65 21 121 67 167 46 47 101 71 166 72m27-78c-15 0-26-4-34-13-8-8-12-16-12-25 0-10 2-17 8-23 6-5 14-8 25-8 13 0 24 4 31 11 8 8 12 17 12 28 0 20-10 30-30 30m-62-304c10 0 25 4 43 13 19 9 37 22 54 40 0 0-9 12-9 12-16-12-28-18-37-18-4 0-5 6-2 19 0 0 22 82 22 82 9 33 5 49-11 49-11 0-26-5-46-15-20-10-40-22-59-38 0 0 8-13 8-13 18 11 31 17 38 17 4 0 4-6 0-17 0 0-18-78-18-78-9-36-3-53 17-53"/>
<glyph unicode="&#57386;" d="M389 256c0 9-1 17-3 26 0 0 90 0 90 0 0 0 0-177 0-177 0-19-6-35-20-49-13-13-29-20-48-20 0 0-304 0-304 0-19 0-35 7-48 20-14 14-20 30-20 49 0 0 0 177 0 177 0 0 89 0 89 0-1-11-2-20-2-26 0-36 13-67 39-94 26-26 57-39 94-39 36 0 67 13 94 39 26 27 39 58 39 94m19 220c19 0 35-6 48-20 14-13 20-29 20-48 0 0 0-75 0-75 0 0-111 0-111 0-27 37-63 56-109 56-47 0-83-19-109-56 0 0-111 0-111 0 0 0 0 75 0 75 0 19 6 35 20 48 13 14 29 20 48 20 0 0 304 0 304 0m32-85c0 0 0 37 0 37 0 8-4 12-12 12 0 0-37 0-37 0-8 0-12-4-12-12 0 0 0-37 0-37 0-3 1-5 3-8 3-3 6-4 9-4 0 0 37 0 37 0 8 0 12 4 12 12m-102-135c0-23-8-42-24-58-16-16-35-24-58-24-23 0-42 8-58 24-16 16-24 35-24 58 0 23 8 43 24 58 16 16 35 24 58 24 23 0 42-8 58-24 16-15 24-35 24-58"/>
<glyph unicode="&#57387;" d="M478 233c8-17 11-34 7-49 0 0-17-94-17-94-1-7-4-13-10-18-6-5-12-7-20-7 0 0-364 0-364 0-8 0-15 2-20 7-6 5-9 11-10 18 0 0-18 94-18 94-2 17 0 34 8 49 0 0 80 192 80 192 8 16 20 24 37 24 0 0 54 0 54 0 0 0-11-105-11-105 0 0-68 0-68 0 0 0 130-107 130-107 0 0 131 107 131 107 0 0-70 0-70 0 0 0-9 105-9 105 0 0 52 0 52 0 17 0 30-8 38-24 0 0 80-192 80-192m-35-67c1 7-1 14-5 19-4 6-10 9-17 9 0 0-330 0-330 0-8 0-13-3-17-9-5-5-6-12-6-19 0 0 8-38 8-38 0-8 4-14 9-19 6-5 12-8 19-8 0 0 303 0 303 0 8 0 15 3 20 8 6 5 9 11 10 19 0 0 6 38 6 38"/>
<glyph unicode="&#57388;" d="M452 390c7-39 2-76-14-110-16-34-42-54-77-60-22-4-44-4-66-1 0 0-61-99-61-99 0 0-36-6-36-6 0 0-53-85-53-85-5-10-12-15-23-17 0 0-39-7-39-7-4-1-8-1-12 2-3 3-5 7-6 11 0 0-8 51-8 51-3 10-1 19 6 28 0 0 132 198 132 198-8 17-14 37-19 61-6 37 3 68 27 96 24 28 56 45 95 52 36 7 69-1 100-23 30-22 48-53 54-91m-64-39c10 15 14 32 11 50-3 18-12 32-27 42-14 11-30 15-47 12-17-4-30-13-41-28-2-4-4-8-6-12-1-4-1-7 0-10 1-3 2-6 2-8 1-3 3-5 7-9 4-3 7-6 9-8 3-1 6-4 11-8 6-4 10-6 12-8 2-2 6-5 11-9 6-4 10-7 12-8 3-1 6-3 10-6 4-3 7-4 10-4 2 0 5 0 8 0 4 1 7 2 10 5 2 2 5 5 8 9"/>
<glyph unicode="&#57389;" d="M476 410c10 0 18-4 25-11 7-7 11-16 11-25 0 0 0-236 0-236 0-10-4-19-11-25-7-7-15-11-25-11 0 0-440 0-440 0-10 0-18 4-25 11-7 6-11 15-11 25 0 0 0 236 0 236 0 9 4 18 11 25 7 7 15 11 25 11 0 0 440 0 440 0m-194-52c0 0 0-51 0-51 0 0 51 0 51 0 0 0 0 51 0 51 0 0-51 0-51 0m76-76c0 0-51 0-51 0 0 0 0-52 0-52 0 0 51 0 51 0 0 0 0 52 0 52m-153 76c0 0 0-51 0-51 0 0 51 0 51 0 0 0 0 51 0 51 0 0-51 0-51 0m77-76c0 0-52 0-52 0 0 0 0-52 0-52 0 0 52 0 52 0 0 0 0 52 0 52m-154 76c0 0 0-51 0-51 0 0 51 0 51 0 0 0 0 51 0 51 0 0-51 0-51 0m77-76c0 0-51 0-51 0 0 0 0-52 0-52 0 0 51 0 51 0 0 0 0 52 0 52m-154 76c0 0 0-51 0-51 0 0 51 0 51 0 0 0 0 51 0 51 0 0-51 0-51 0m77-76c0 0-51 0-51 0 0 0 0-52 0-52 0 0 51 0 51 0 0 0 0 52 0 52m-26-128c0 0 0 51 0 51 0 0-51 0-51 0 0 0 0-51 0-51 0 0 51 0 51 0m282 0c0 0 0 51 0 51 0 0-256 0-256 0 0 0 0-51 0-51 0 0 256 0 256 0m77 0c0 0 0 51 0 51 0 0-51 0-51 0 0 0 0-51 0-51 0 0 51 0 51 0m-77 76c0 0 51 0 51 0 0 0 0 52 0 52 0 0-51 0-51 0 0 0 0-52 0-52m77 77c0 0 0 51 0 51 0 0-103 0-103 0 0 0 0-51 0-51 0 0 103 0 103 0"/>
<glyph unicode="&#57390;" d="M184 20c0 0 0 54 0 54 0 0 144 0 144 0 0 0 0-54 0-54-24-14-48-21-73-20-23-1-47 6-71 20m141 84c0 0-138 0-138 0 0 25-6 49-19 72-12 23-25 43-40 58-14 15-26 34-37 57-11 23-16 47-14 71 3 41 19 77 48 106 30 29 73 44 130 44 58 0 102-15 131-44 29-29 45-65 49-106 1-20-2-39-9-57-6-18-15-35-26-50-11-14-22-29-33-43-12-14-21-31-30-49-8-19-12-38-12-59m-193 254c-2-1-2-4 0-10 1-5 1-9 1-10-1-1 0-5 2-10 3-5 4-8 3-9 0-1 1-4 4-9 3-5 5-9 6-10 1-1 3-5 7-10 3-5 6-8 7-9 1-2 3-5 7-11 5-6 7-10 9-12 30-42 49-78 57-108 0 0 42 0 42 0 8 32 27 68 57 108 2 2 6 8 13 18 7 10 12 16 13 18 1 3 4 8 9 15 4 8 7 13 8 17 1 4 2 9 3 14 1 6 1 12 0 18-5 67-47 101-125 101-77 0-118-34-123-101"/>
<glyph unicode="&#57391;" d="M505 233c11-27 9-57-5-90-13-32-36-59-68-81-4 0-6 0-6 1-1 0-4 4-9 9-4 6-7 9-8 10 0 2 0 4 1 5 30 21 49 47 60 78 11 31 9 57-6 76-5-13-12-26-20-39-7-13-17-27-30-41-12-14-27-26-44-33-17-8-35-11-54-8-18 2-32 9-43 21-11 12-16 28-16 47 0 29 10 54 30 76 18 17 37 28 59 34 0 0-1 51-1 51-48-8-73-12-75-12-2-1-4 0-5 2 0 1-1 5-3 15-1 9-2 14-2 16-1 0-1 1 0 2 1 0 3 1 4 1 0 0 80 14 80 14 0 37-1 57-1 58 0 3 1 4 4 4 15 0 24 1 26 1 4 0 6-1 6-4 0 0 0-53 0-53 53 8 81 11 83 11 3 2 5 1 6-3 0 0 0-4 2-12 1-7 2-11 2-12 1-4 0-6-2-6 0 0-90-16-90-16 0 0 0-52 0-52 0 0 6 0 6 0 29 0 54-6 75-18 22-13 36-30 44-52m-189-81c10-2 20-1 32 3 0 0-2 109-2 109-12-4-22-11-31-20-15-15-22-34-22-56 0-22 7-34 23-36m63 14c9 8 19 20 29 35 10 15 18 28 23 40 5 12 6 19 4 21-13 6-29 9-49 9-1 0-2 0-3 0-2-1-3-1-3-1 0 0-1-104-1-104m-230 195c4-9 13-37 27-84 15-47 29-91 43-134 14-42 20-63 20-64 0-1 0-2-2-2 0 0-44 0-44 0-2 0-3 1-3 2 0 0-25 85-25 85 0 0-90 0-90 0-17-56-25-84-26-85 0-1-1-2-3-2 0 0-44 0-44 0-1 0-2 1-2 2 3 6 33 100 90 282 1 3 2 4 5 4 0 0 49 0 49 0 4 0 5-1 5-4m-66-161c0 0 74 0 74 0 0 0-37 135-37 135 0 0-37-135-37-135"/>
<glyph unicode="&#57392;" d="M202 190c0 0 17-51 17-51-22-17-50-26-86-26-36 0-67 12-94 37-26 25-39 59-39 102 0 44 14 80 41 107 27 27 59 40 96 40 38 0 67-7 86-23 18-15 34-42 46-81 0 0 19-59 19-59 16-50 51-75 103-75 41 0 62 10 62 30 0 19-14 31-40 37 0 0-40 10-40 10-46 11-69 37-69 77 0 30 10 52 30 65 20 13 45 19 75 19 62 0 96-25 101-74 0 0-58-8-58-8-3 24-19 36-46 36-28 0-42-10-42-31 0-18 11-29 33-34 0 0 38-8 38-8 51-13 77-41 77-85 0-55-41-82-122-82-46 0-81 9-104 27-24 18-41 43-52 76 0 0-18 59-18 59-5 14-8 24-11 31-3 7-7 14-13 22-6 8-13 14-22 17-8 3-18 5-31 5-22 0-41-8-58-23-16-16-25-40-25-73 0-27 8-50 24-67 16-17 34-25 56-25 21 0 43 9 66 28"/>
<glyph unicode="&#57393;" d="M256 502c68 0 125-24 174-72 48-48 72-106 72-174 0-68-24-125-72-174-49-48-106-72-174-72-68 0-126 24-174 72-48 49-72 106-72 174 0 68 24 126 72 174 48 48 106 72 174 72m68-318c41 0 61 14 61 41 0 23-13 37-39 43 0 0-19 4-19 4-11 3-17 9-17 18 0 10 7 15 21 15 15 0 23-6 23-17 0 0 30 3 30 3-2 25-19 38-51 38-35 0-52-15-52-43 0-21 11-34 33-39 0 0 21-4 21-4 14-4 20-10 20-19 0-11-10-16-31-16-26 0-43 12-52 38 0 0-10 29-10 29-6 20-14 34-23 42-9 8-24 12-43 12-19 0-35-7-49-21-14-13-21-32-21-54 0-21 7-38 20-51 13-12 29-19 48-19 18 0 33 5 44 14 0 0-10 25-10 25-9-9-20-14-33-14-11 0-21 4-29 13-7 8-11 19-11 33 0 17 4 29 12 37 9 8 19 12 30 12 11 0 20-3 25-9 5-6 9-16 14-29 0 0 9-29 9-29 11-35 37-53 79-53"/>
<glyph unicode="&#57394;" d="M189 410c28 0 41-14 41-41 0 0 0-46 0-46 0-28-13-41-41-41 0 0-46 0-46 0-27 0-41 13-41 41 0 0 0 46 0 46 0 27 14 41 41 41 0 0 46 0 46 0m180 0c27 0 41-14 41-41 0 0 0-46 0-46 0-28-14-41-41-41 0 0-46 0-46 0-28 0-41 13-41 41 0 0 0 46 0 46 0 27 13 41 41 41 0 0 46 0 46 0m-180-180c28 0 41-13 41-41 0 0 0-46 0-46 0-27-13-41-41-41 0 0-46 0-46 0-27 0-41 14-41 41 0 0 0 46 0 46 0 28 14 41 41 41 0 0 46 0 46 0m180 0c27 0 41-13 41-41 0 0 0-46 0-46 0-27-14-41-41-41 0 0-46 0-46 0-28 0-41 14-41 41 0 0 0 46 0 46 0 28 13 41 41 41 0 0 46 0 46 0"/>
<glyph unicode="&#57395;" d="M136 408c62 36 149 47 259 33 58-7 91-16 101-25 1-2 1-4-1-5-26-14-48-33-67-56-18-24-32-46-40-68-8-21-19-44-33-67-14-24-30-42-48-54-47-33-112-34-195-2-23-26-42-56-59-90-4-8-12-10-24-4-12 6-16 13-13 20 16 34 38 67 67 99 29 32 59 58 90 78 31 21 61 39 90 55 29 15 53 27 72 34 0 0 28 11 28 11-5 0-12-1-21-1-10 0-27-3-54-7-26-5-51-11-75-20-25-8-52-22-83-43-31-20-59-44-83-72-7 83 22 144 89 184"/>
<glyph unicode="&#57396;" d="M263 87c0 0-194 169-194 169 0 0 194 169 194 169 0 0 0-97 0-97 0 0 180 0 180 0 0 0 0-143 0-143 0 0-180 0-180 0 0 0 0-98 0-98"/>
<glyph unicode="&#57397;" d="M263 451c0 0 0-98 0-98 0 0 180 0 180 0 0 0 0-193 0-193 0 0-180 0-180 0 0 0 0-99 0-99 0 0-194 195-194 195 0 0 194 195 194 195"/>
<glyph unicode="&#57398;" d="M492 256c0-65-24-120-70-166-46-46-101-70-166-70-65 0-120 24-166 70-46 46-70 101-70 166 0 66 24 121 70 167 46 46 101 69 166 69 65 0 120-23 166-69 46-46 70-101 70-167m-420 0c0-51 18-94 54-130 36-36 79-54 130-54 51 0 94 18 130 54 36 36 54 79 54 130 0 51-18 95-54 131-36 35-79 53-130 53-51 0-94-18-130-53-36-36-54-80-54-131m282-46c0 0-104 0-104 0 0 0 0-57 0-57 0 0-97 103-97 103 0 0 97 104 97 104 0 0 0-58 0-58 0 0 104 0 104 0 0 0 0-92 0-92"/>
<glyph unicode="&#57399;" d="M358 374c0 0 0-236 0-236 0 0-204 118-204 118 0 0 204 118 204 118"/>
<glyph unicode="&#57400;" d="M293 397c4 6 11 9 20 9 8 0 15-3 21-9 13-12 13-26 0-41 0 0-96-100-96-100 0 0 96-99 96-99 13-15 13-29 0-41-6-6-13-8-21-8-8 0-15 2-20 8 0 0-116 121-116 121-6 5-8 11-8 19 0 8 2 15 8 20 70 74 109 114 116 121"/>
<glyph unicode="&#57401;" d="M368 67c9-9 9-18 0-25-8-9-17-9-24 0 0 0-201 202-201 202-8 8-8 16 0 25 0 0 201 202 201 202 7 9 16 9 24 0 9-7 9-16 0-25 0 0-183-190-183-190 0 0 183-189 183-189"/>
<glyph unicode="&#57402;" d="M317 169c9-9 9-17 0-25-9-8-17-8-24 0 0 0-99 100-99 100-8 8-8 16 0 25 0 0 99 100 99 100 7 9 15 9 24 0 9-8 9-16 0-25 0 0-80-88-80-88 0 0 80-87 80-87"/>
<glyph unicode="&#57403;" d="M128 128c0 0-123 128-123 128 0 0 123 128 123 128 0 0 0-82 0-82 0 0 379 0 379 0 0 0 0-91 0-91 0 0-379 0-379 0 0 0 0-83 0-83"/>
<glyph unicode="&#57404;" d="M117 179c-15 0-27 5-37 16-10 10-14 22-14 35 0 0 0 180 0 180 0 0 71 0 71 0 0 0 0-159 0-159 0 0 187 0 187 0 0 0 0 77 0 77 0 0 122-113 122-113 0 0-122-113-122-113 0 0 0 77 0 77 0 0-207 0-207 0"/>
<glyph unicode="&#57405;" d="M141 256c0 0 0-46 0-46 0 0-103 82-103 82 0 0 103 87 103 87 0 0 0-51 0-51 0 0 281 0 281 0 14 0 26-5 36-15 10-10 16-22 16-37 0 0 0-143 0-143 0 0-72 0-72 0 0 0 0 123 0 123 0 0-261 0-261 0"/>
<glyph unicode="&#57406;" d="M253 492c65 0 120-22 167-67 46-45 70-100 72-165 0-65-22-121-68-167-45-47-100-71-165-73-65 0-121 22-167 68-47 45-71 100-72 165-1 65 21 121 67 167 46 47 101 71 166 72m0-31c-32 0-63-8-91-23 0 0 32-53 32-53 19 10 39 14 62 14 23 0 43-4 62-14 0 0 32 53 32 53-30 16-62 23-97 23m-126-267c-10 20-14 41-14 62 0 22 4 43 14 63 0 0-52 32-52 32-16-30-24-62-24-97 1-33 9-64 24-92 0 0 52 32 52 32m132-143c34 2 64 9 91 24 0 0-32 53-32 53-20-10-41-15-62-15-21 0-42 5-62 15 0 0-32-53-32-53 29-16 62-24 97-24m-3 92c31 0 58 11 80 34 22 22 33 48 33 79 0 31-11 58-33 80-22 22-49 33-80 33-31 0-58-11-80-33-22-22-33-49-33-80 0-31 11-57 33-79 22-23 49-34 80-34m129 51c0 0 53-32 53-32 16 33 23 65 23 97 0 33-8 64-23 92 0 0-53-32-53-32 10-20 14-41 14-63 0-21-4-42-14-62"/>
<glyph unicode="&#57407;" d="M256 338c23 0 43-8 58-24 16-16 24-35 24-58 0-23-8-43-24-58-15-16-35-24-58-24-23 0-42 8-58 24-16 15-24 35-24 58 0 23 8 42 24 58 16 16 35 24 58 24m0-135c15 0 27 5 37 15 10 10 15 23 15 38 0 14-5 27-15 37-10 10-22 15-37 15-14 0-27-5-37-15-10-10-15-23-15-37 0-15 5-28 15-38 10-10 23-15 37-15m-154 73c7 0 13-2 18-6 5-4 8-9 8-14 0-14-9-20-26-20-17 0-25 6-25 20 0 5 2 10 7 14 6 4 12 6 18 6m280 105c10-10 8-21-4-33-5-5-11-7-17-8-7-1-11 1-15 5-4 4-6 9-5 16 1 6 3 12 8 17 12 11 23 12 33 3m28-105c6 0 12-2 18-6 5-4 7-9 7-14 0-14-8-20-25-20-17 0-25 6-25 20 0 5 2 10 7 14 5 4 11 6 18 6m-154-148c5 0 10-3 14-8 4-5 6-11 6-18 0-6-2-12-6-18-4-5-9-7-14-7-5 0-10 2-14 7-4 6-6 12-6 18 0 7 2 13 6 18 4 5 9 8 14 8m-122 32c12 12 23 13 33 4 9-10 8-21-4-33-5-5-11-7-17-8-7-1-12 1-15 4-10 10-9 20 3 33m-5 220c10 9 21 8 33-4 5-5 7-11 8-17 1-7-1-12-4-15-10-9-21-8-33 3-12 12-14 23-4 33m221-248c-11 12-12 23-3 33 10 9 21 8 33-4 5-5 7-11 8-17 1-7-1-12-5-15-10-10-21-9-33 3m-94 252c-5 0-10 3-14 8-4 5-6 11-6 18 0 6 2 12 6 18 4 5 9 7 14 7 5 0 10-2 14-7 4-6 6-12 6-18 0-7-2-13-6-18-4-5-9-8-14-8"/>
<glyph unicode="&#57408;" d="M486 276c7 0 13-2 18-6 5-4 8-9 8-14 0-14-9-20-26-20 0 0-24 0-24 0-17 0-26 6-26 20 0 5 3 10 8 14 5 4 11 6 18 6 0 0 24 0 24 0m-230 120c39 0 72-13 100-41 27-27 41-60 41-99 0-40-14-73-41-100-28-28-61-41-100-41-39 0-72 13-99 41-28 27-41 60-41 100 0 39 13 72 41 99 27 28 60 41 99 41m0-242c28 0 52 9 72 29 20 20 30 44 30 73 0 28-10 52-30 72-20 20-44 30-72 30-28 0-52-10-72-30-20-20-30-44-30-72 0-29 10-53 30-73 20-20 44-29 72-29m-179 102c0-14-9-20-26-20 0 0-25 0-25 0-17 0-26 6-26 20 0 5 3 10 8 14 5 4 11 6 18 6 0 0 25 0 25 0 7 0 13-2 18-6 5-4 8-9 8-14m179 179c-5 0-10 3-14 8-4 5-6 11-6 18 0 0 0 25 0 25 0 7 2 13 6 18 4 5 9 8 14 8 5 0 10-3 14-8 4-5 6-11 6-18 0 0 0-25 0-25 0-7-2-13-6-18-4-5-9-8-14-8m0-358c5 0 10-3 14-8 4-5 6-11 6-18 0 0 0-25 0-25 0-7-2-13-6-18-4-5-9-8-14-8-5 0-10 3-14 8-4 5-6 11-6 18 0 0 0 25 0 25 0 7 2 13 6 18 4 5 9 8 14 8m188 338c0 0-17-18-17-18-12-11-23-13-33-4-9 10-8 21 4 33 2 2 8 8 18 18 12 12 23 13 33 3 9-9 8-20-5-32m-358-301c5 5 10 8 17 9 6 1 11-1 15-5 4-4 6-10 5-16-1-7-4-12-8-17 0 0-19-18-19-18-5-5-10-8-17-9-6 0-11 1-14 5-11 10-10 21 3 33 2 2 8 7 18 18m10 330c0 0 19-18 19-18 12-12 13-23 3-33-4-3-9-5-15-4-7 1-12 4-17 8-10 11-16 16-18 18-5 4-8 10-9 17 0 6 1 11 6 15 3 5 8 6 14 6 7-1 12-4 17-9m302-359c-12 12-13 23-4 33 10 9 21 8 33-4 0 0 17-18 17-18 13-12 14-23 5-33-10-9-21-8-33 4-10 10-16 16-18 18"/>
<glyph unicode="&#57409;" d="M202 136c5 5 10 7 17 7 7 0 13-2 19-7 10-11 10-23 0-36 0 0-22-20-22-20-19-19-42-29-68-29-26 0-49 10-68 29-19 19-29 42-29 67 0 27 10 50 29 69 0 0 76 76 76 76 24 23 48 36 73 39 26 3 47-4 66-22 5-5 8-11 8-18 0-7-3-13-8-19-12-11-24-11-36 0-17 17-40 11-68-17 0 0-75-75-75-75-9-9-14-20-14-33 0-13 5-23 14-31 9-9 19-14 32-14 13 0 23 5 32 14 0 0 22 20 22 20m230 294c19-19 29-42 29-68 0-26-10-49-29-68 0 0-81-81-81-81-25-25-51-37-77-37-21 0-40 9-57 26-5 5-7 10-7 17 0 7 2 13 7 19 5 4 11 7 18 7 7 0 13-3 18-7 17-17 38-13 62 12 0 0 81 80 81 80 10 9 15 20 15 32 0 13-5 24-15 32-8 9-17 14-28 16-11 2-22-2-31-11 0 0-26-25-26-25-5-5-11-7-18-7-7 0-13 2-18 7-11 11-11 23 0 36 0 0 26 25 26 25 18 19 40 27 65 26 25-1 47-11 66-31"/>
<glyph unicode="&#57410;" d="M130 434c0-13-5-25-15-35-10-9-22-14-38-14-15 0-28 5-37 14-10 10-14 22-14 35 0 15 4 26 14 36 9 9 22 13 38 13 16 0 28-4 37-13 9-10 14-21 15-36m-101-404c0 0 0 316 0 316 0 0 98 0 98 0 0 0 0-316 0-316 0 0-98 0-98 0m156 215c0 29 0 63-2 101 0 0 85 0 85 0 0 0 5-44 5-44 0 0 2 0 2 0 21 34 53 51 98 51 34 0 61-11 82-34 21-23 31-57 31-102 0 0 0-187 0-187 0 0-98 0-98 0 0 0 0 175 0 175 0 46-17 68-50 68-24 0-41-12-50-36-2-5-3-13-3-25 0 0 0-182 0-182 0 0-100 0-100 0 0 0 0 215 0 215"/>
<glyph unicode="&#57411;" d="M256 502c68 0 126-24 174-72 48-48 72-106 72-174 0-68-24-125-72-174-48-48-106-72-174-72-68 0-125 24-174 72-48 49-72 106-72 174 0 68 24 126 72 174 49 48 106 72 174 72m-60-347c0 0 0 159 0 159 0 0-50 0-50 0 0 0 0-159 0-159 0 0 50 0 50 0m-25 180c18 0 27 8 27 24 0 17-9 25-27 25-7 0-14-2-19-7-5-5-8-11-8-18 0-16 9-24 27-24m207-180c0 0 0 94 0 94 0 22-5 40-16 52-11 11-24 17-41 17-23 0-39-8-50-25 0 0-1 0-1 0 0 0-3 21-3 21 0 0-43 0-43 0 1-9 1-26 1-51 0 0 0-108 0-108 0 0 50 0 50 0 0 0 0 92 0 92 0 6 1 10 3 12 4 13 12 20 25 20 16 0 25-12 25-35 0 0 0-89 0-89 0 0 50 0 50 0"/>
<glyph unicode="&#57412;" d="M128 179c7 0 13-2 18-7 5-6 8-12 8-18 0-7-3-13-8-18-5-5-11-8-18-8 0 0-26 0-26 0-6 0-12 3-18 8-5 5-7 11-7 18 0 6 2 12 7 18 5 5 11 7 18 7 0 0 26 0 26 0m0 103c7 0 13-3 18-8 5-5 8-11 8-18 0-7-3-13-8-18-5-5-11-8-18-8 0 0-26 0-26 0-6 0-12 3-18 8-5 5-7 11-7 18 0 7 2 13 7 18 5 5 11 8 18 8 0 0 26 0 26 0m0 102c7 0 13-3 18-8 5-5 8-11 8-18 0-6-3-12-8-18-5-5-11-7-18-7 0 0-26 0-26 0-6 0-12 2-18 7-5 6-7 12-7 18 0 7 2 13 7 18 5 5 11 8 18 8 0 0 26 0 26 0m102-51c-6 0-12 2-18 7-5 6-7 12-7 18 0 7 2 13 7 18 6 5 12 8 18 8 0 0 180 0 180 0 7 0 13-3 18-8 5-5 7-11 7-18 0-6-2-12-7-18-6-5-12-7-18-7 0 0-180 0-180 0m180-51c7 0 13-3 18-8 5-5 7-11 7-18 0-7-2-13-7-18-6-5-12-8-18-8 0 0-180 0-180 0-6 0-12 3-18 8-5 5-7 11-7 18 0 7 2 13 7 18 6 5 12 8 18 8 0 0 180 0 180 0m0-103c7 0 13-2 18-7 5-6 7-12 7-18 0-7-2-13-7-18-6-5-12-8-18-8 0 0-180 0-180 0-6 0-12 3-18 8-5 5-7 11-7 18 0 6 2 12 7 18 6 5 12 7 18 7 0 0 180 0 180 0"/>
<glyph unicode="&#57413;" d="M179 282c8 0 14-3 19-8 4-5 7-11 7-18 0-7-3-13-8-18-5-5-11-8-18-8 0 0-153 0-153 0-7 0-13 3-18 8-5 5-8 11-8 18 0 7 2 13 7 18 5 5 11 8 19 8 0 0 153 0 153 0m0-103c8 0 14-2 19-7 4-6 7-12 7-18 0-7-3-13-8-18-5-5-11-8-18-8 0 0-153 0-153 0-7 0-13 3-18 8-5 5-8 11-8 18 0 6 2 12 7 18 5 5 11 7 19 7 0 0 153 0 153 0m318 103c10 0 15-9 15-26 0-17-5-26-15-26 0 0-87 0-87 0 0 0 0-87 0-87 0-10-9-15-26-15-17 0-26 5-26 15 0 0 0 87 0 87 0 0-84 0-84 0-10 0-15 9-15 26 0 17 5 26 15 26 0 0 84 0 84 0 0 0 0 87 0 87 0 10 9 15 26 15 17 0 26-5 26-15 0 0 0-87 0-87 0 0 87 0 87 0m-318 102c8 0 14-3 19-8 4-5 7-11 7-18 0-6-3-12-8-18-5-5-11-7-18-7 0 0-153 0-153 0-7 0-13 2-18 7-5 6-8 12-8 18 0 7 2 13 7 18 5 5 11 8 19 8 0 0 153 0 153 0"/>
<glyph unicode="&#57414;" d="M256 461c36 0 66-13 91-38 25-24 37-55 37-90 0-36-11-78-32-125-21-46-42-84-64-114 0 0-32-43-32-43-3 4-8 10-14 18-6 8-16 23-31 46-14 22-27 44-38 66-12 22-22 47-31 76-9 28-14 53-14 76 0 35 12 66 37 90 25 25 56 38 91 38m0-199c19 0 36 7 49 21 14 13 21 30 21 49 0 19-7 35-21 48-13 14-30 20-49 20-19 0-35-6-49-20-13-13-20-29-20-48 0-19 7-36 20-49 14-14 30-21 49-21"/>
<glyph unicode="&#57415;" d="M404 321c7 0 14-4 21-10 7-7 10-14 10-21 0 0 0-200 0-200 0-16-8-28-24-34 0 0-31-9-31-9-14-5-31-8-49-8 0 0-149 0-149 0-19 0-36 3-50 8 0 0-31 9-31 9-16 6-24 18-24 34 0 0 0 200 0 200 0 7 2 14 7 21 6 6 12 10 18 10 0 0 52 0 52 0 0 0 0 35 0 35 0 38 8 67 26 87 17 21 43 31 76 31 33 0 59-10 76-31 18-20 26-49 26-87 0 0 0-35 0-35 0 0 46 0 46 0m-199 46c0 0 0-46 0-46 0 0 102 0 102 0 0 0 0 46 0 46 0 17-4 31-14 41-9 10-21 15-37 15-16 0-28-5-37-15-10-10-14-24-14-41"/>
<glyph unicode="&#57416;" d="M404 307c7 0 14-3 21-10 7-7 10-14 10-21 0 0 0-199 0-199 0-7-2-14-7-20-5-7-11-11-17-13 0 0-31-10-31-10-18-6-34-8-49-8 0 0-149 0-149 0-15 0-32 2-50 8 0 0-31 10-31 10-6 2-12 6-17 13-5 6-7 13-7 20 0 0 0 199 0 199 0 8 2 15 7 21 6 7 12 10 18 10 0 0 205 0 205 0 0 0 0 72 0 72 0 37-17 56-51 56-34 0-51-19-51-56 0 0 0-21 0-21 0 0-51 0-51 0 0 0 0 11 0 11 0 37 8 66 26 87 17 20 43 30 76 30 68 0 102-39 102-117 0 0 0-62 0-62 0 0 46 0 46 0"/>
<glyph unicode="&#57417;" d="M435 486c15 0 27-5 37-14 9-10 14-22 14-37 0 0 0-358 0-358 0-14-5-26-14-36-10-10-22-15-37-15 0 0-230 0-230 0-14 0-26 5-36 15-9 10-14 22-14 36 0 0 0 51 0 51 0 0 50 0 50 0 0 0 0-51 0-51 0 0 230 0 230 0 0 0 0 358 0 358 0 0-230 0-230 0 0 0 0-77 0-77 0 0-50 0-50 0 0 0 0 77 0 77 0 15 5 27 14 37 10 9 22 14 36 14 0 0 230 0 230 0m-179-343c0 0 0 62 0 62 0 0-230 0-230 0 0 0 0 77 0 77 0 0 230 0 230 0 0 0 0 61 0 61 0 0 102-99 102-99 0 0-102-101-102-101"/>
<glyph unicode="&#57418;" d="M350 200c16-31 15-62-2-92-15-24-34-39-59-46-25-6-51-1-78 14 0 0-32 18-32 18 0 0-56-94-56-94 0 0-28 16-28 16 0 0 105 184 105 184-23-4-46 1-68 14 0 0-62 36-62 36 0 0 95 166 95 166 0 0 63-36 63-36 22-14 38-31 47-51 0 0 105 183 105 183 0 0 30-17 30-17 0 0-55-96-55-96 0 0 33-18 33-18 26-15 42-35 50-61 7-26 4-50-10-73-17-30-43-46-78-47m22 154c0 0-33 20-33 20 0 0-63-111-63-111 0-1 0-2-1-3 0 0 32-18 32-18 17-11 35-13 51-9 16 4 29 15 39 31 9 17 12 33 7 50-4 17-15 30-32 40m-225-113c18-11 35-14 51-9 17 4 30 15 39 31 10 17 12 33 8 50-5 17-15 31-33 40 0 0-32 20-32 20 0 0-66-114-66-114 0 0 33-18 33-18m80-139c18-10 35-13 51-8 16 4 29 15 39 31 9 16 12 33 7 50-5 16-16 30-33 40 0 0-31 18-31 18 0 0-2-2-2-2 0 0-64-110-64-110 0 0 33-19 33-19"/>
<glyph unicode="&#57419;" d="M283 77c0 0 0 51 0 51 0 0 50 0 50 0 0 0 0-51 0-51 0-14-5-26-15-36-10-10-22-15-36-15 0 0-205 0-205 0-14 0-26 5-36 15-10 10-15 22-15 36 0 0 0 358 0 358 0 15 5 27 15 37 10 9 22 14 36 14 0 0 205 0 205 0 14 0 26-5 36-14 10-10 15-22 15-37 0 0 0-77 0-77 0 0-50 0-50 0 0 0 0 77 0 77 0 0-206 0-206 0 0 0 0-358 0-358 0 0 206 0 206 0m203 167c0 0-101-101-101-101 0 0 0 62 0 62 0 0-230 0-230 0 0 0 0 77 0 77 0 0 230 0 230 0 0 0 0 61 0 61 0 0 101-99 101-99"/>
<glyph unicode="&#57420;" d="M435 353c15 0 27-5 37-15 9-9 14-22 14-36 0 0 0-148 0-148 0-14-5-26-14-36-10-10-22-16-37-16 0 0-358 0-358 0-14 0-26 6-36 16-10 10-15 22-15 36 0 0 0 148 0 148 0 14 5 27 15 36 10 10 22 15 36 15 0 0 128 0 128 0 0 0 0 57 0 57 0 0 102-93 102-93 0 0-102-92-102-92 0 0 0 57 0 57 0 0-108 0-108 0 0 0 0-108 0-108 0 0 318 0 318 0 0 0 0 108 0 108 0 0-77 0-77 0 0 0 0 71 0 71 0 0 97 0 97 0"/>
<glyph unicode="&#57421;" d="M311 54c0 0 8 84 8 84 0 0 134-10 134-10 0 0-9-85-9-85-1-10-6-14-16-12 0 0-102 8-102 8-10 0-15 5-15 15m-251 74c0 0 133 10 133 10 0 0 8-84 8-84 0-4-1-7-3-10-3-4-7-5-12-5 0 0-101-8-101-8-4-1-8 0-11 3-4 3-5 6-5 9 0 0-9 85-9 85m-13 138c-1 4-1 10-1 18 0 54 21 101 62 139 40 39 90 58 148 58 58 0 108-19 148-58 41-38 62-85 62-139 0-8 0-14-1-18 0 0-8-87-8-87 0 0-132 11-132 11 0 0 8 88 8 88 0 0 0 6 0 6 0 19-8 36-23 50-15 14-33 21-54 21-21 0-39-7-54-21-15-14-23-31-23-50 0 0 0-6 0-6 0 0 8-88 8-88 0 0-132-11-132-11 0 0-8 87-8 87"/>
<glyph unicode="&#57422;" d="M41 377c-11 6-16 13-14 20 0 5 5 7 13 7 0 0 433 0 433 0 13 0 16-5 10-16-2-5-6-8-12-11-5-2-38-20-98-52-61-33-92-50-93-51-6-3-14-5-24-5-10 0-17 2-24 5-1 1-32 18-93 51-60 32-93 50-98 52m435-51c7 3 10 1 10-5 0 0 0-189 0-189 0-5-2-11-8-16-6-6-12-8-17-8 0 0-410 0-410 0-5 0-11 2-17 8-5 5-8 11-8 16 0 0 0 189 0 189 0 6 3 8 10 5 0 0 196-103 196-103 7-3 14-5 24-5 10 0 17 2 24 5 0 0 196 103 196 103"/>
<glyph unicode="&#57423;" d="M504 384c5-3 8-9 8-15 0 0 0-299 0-299 0-7-3-12-8-16-3-2-6-3-8-3-3 0-6 1-10 3 0 0-110 70-110 70 0 0-111-70-111-70-6-3-12-3-17 0 0 0-112 70-112 70 0 0-110-70-110-70-6-3-12-3-18 0-5 4-8 9-8 16 0 0 0 299 0 299 0 6 3 12 8 15 0 0 120 75 120 75 6 3 12 3 17 0 0 0 111-70 111-70 0 0 112 70 112 70 5 3 11 3 16 0 0 0 120-75 120-75m-384-230c0 0 0 259 0 259 0 0-86-54-86-54 0 0 0-259 0-259 0 0 86 54 86 54m120-54c0 0 0 259 0 259 0 0-86 54-86 54 0 0 0-259 0-259 0 0 86-54 86-54m119 54c0 0 0 259 0 259 0 0-87-54-87-54 0 0 0-259 0-259 0 0 87 54 87 54m119-54c0 0 0 259 0 259 0 0-86 54-86 54 0 0 0-259 0-259 0 0 86-54 86-54"/>
<glyph unicode="&#57424;" d="M442 333c19-47 31-91 34-132 3-41-4-65-20-72-10-4-20-4-31 2-12 5-23 12-34 20-11 9-27 16-50 21-23 5-49 7-77 4-9-1-16-4-21-10-5-5-6-11-3-19 7-19 15-37 23-55 2-3 6-7 13-11 7-4 11-8 12-10 5-12 1-20-11-24-17-7-35-14-53-20-10-4-19 3-27 21-11 26-21 49-30 68-2 4-8 7-17 8-10 2-18 7-24 16-10-3-17-6-19-7-12-4-25-2-38 6-14 8-23 19-28 31-5 11-6 24-2 40 3 16 11 27 22 32 43 17 79 36 109 55 29 19 51 37 63 53 13 16 23 31 30 47 8 15 12 28 13 40 1 11 4 21 8 30 4 9 10 15 18 18 17 7 39-5 67-35 28-31 52-70 73-117m-15-154c3 2 5 8 5 20 1 11-1 28-5 50-5 22-12 44-21 65-10 23-21 44-35 63-13 20-24 34-34 43-9 10-16 13-18 12-3-1-5-8-5-21-1-13 1-31 5-54 4-23 11-46 20-68 10-23 21-43 35-61 14-18 25-31 35-39 9-8 16-11 18-10"/>
<glyph unicode="&#57425;" d="M410 282c7 0 13-3 18-8 5-5 7-11 7-18 0-7-2-13-7-18-6-5-12-8-18-8 0 0-308 0-308 0-6 0-12 3-18 8-5 5-7 11-7 18 0 7 2 13 7 18 5 5 11 8 18 8 0 0 308 0 308 0m-308 51c-6 0-12 2-18 7-5 6-7 12-7 18 0 7 2 13 7 18 5 5 11 8 18 8 0 0 308 0 308 0 7 0 13-3 18-8 5-5 7-11 7-18 0-6-2-12-7-18-6-5-12-7-18-7 0 0-308 0-308 0m308-154c7 0 13-2 18-7 5-6 7-12 7-18 0-7-2-13-7-18-6-5-12-8-18-8 0 0-308 0-308 0-6 0-12 3-18 8-5 5-7 11-7 18 0 6 2 12 7 18 5 5 11 7 18 7 0 0 308 0 308 0"/>
<glyph unicode="&#57426;" d="M410 327c6 0 10-4 10-11 0 0 0-70 0-70 0-32-12-60-35-84-24-25-58-39-103-43 0 0 0-68 0-68 0 0 66 0 66 0 7 0 10-3 10-10 0 0 0-31 0-31 0-7-3-10-10-10 0 0-184 0-184 0-7 0-10 3-10 10 0 0 0 31 0 31 0 7 3 10 10 10 0 0 66 0 66 0 0 0 0 68 0 68-45 4-79 18-103 43-23 24-35 52-35 84 0 0 0 70 0 70 0 7 4 11 10 11 0 0 16 0 16 0 7 0 10-4 10-11 0 0 0-70 0-70 0-23 10-44 30-63 20-20 53-29 98-29 45 0 78 9 98 29 20 19 30 40 30 63 0 0 0 70 0 70 0 7 3 11 10 11 0 0 16 0 16 0m-154-122c-27 0-47 4-59 13-12 8-18 18-18 28 0 0 0 81 0 81 0 0 154 0 154 0 0 0 0-81 0-81 0-10-6-20-18-28-12-9-32-13-59-13m77 266c0 0 0-109 0-109 0 0-154 0-154 0 0 0 0 109 0 109 0 10 6 20 18 28 12 9 32 13 59 13 27 0 47-4 59-13 12-8 18-18 18-28"/>
<glyph unicode="&#57427;" d="M389 282c10 0 15-9 15-26 0-17-5-26-15-26 0 0-266 0-266 0-10 0-15 9-15 26 0 17 5 26 15 26 0 0 266 0 266 0"/>
<glyph unicode="&#57428;" d="M256 471c59 0 110-21 152-63 42-42 63-93 63-152 0-59-21-110-63-152-42-42-93-63-152-63-59 0-110 21-152 63-42 42-63 93-63 152 0 59 21 110 63 152 42 42 93 63 152 63m129-188c0 0-258 0-258 0 0 0 0-53 0-53 0 0 258 0 258 0 0 0 0 53 0 53"/>
<glyph unicode="&#57429;" d="M410 461c14 0 26-5 36-15 10-10 15-22 15-36 0 0 0-308 0-308 0-13-5-25-15-35-10-11-22-16-36-16 0 0-308 0-308 0-13 0-25 5-35 16-11 10-16 22-16 35 0 0 0 308 0 308 0 14 5 26 16 36 10 10 22 15 35 15 0 0 308 0 308 0m-26-231c0 0 0 52 0 52 0 0-256 0-256 0 0 0 0-52 0-52 0 0 256 0 256 0"/>
<glyph unicode="&#57430;" d="M244 71c-63 0-117 17-163 51-46 35-73 78-80 131-7 58 11 111 56 158 44 47 101 75 172 84 70 8 132-5 187-40 55-35 86-82 93-140 5-40-1-82-18-125-16-43-45-81-84-115-40-34-86-53-138-60 0 0 0 56 0 56 0 0-25 0-25 0m157 112c0 0 0 142 0 142 0 11-2 20-5 26-3 6-8 13-16 20-5 4-13 7-22 10-10 2-19 3-29 3-15 0-28-3-38-8-8-4-15-9-21-16-4 6-10 11-19 17-10 5-22 7-36 7-22 0-41-6-56-19 0 0 0 15 0 15 0 0-45 0-45 0 0 0 0-197 0-197 0 0 47 0 47 0 0 0 0 121 0 121 0 1 1 5 2 10 1 4 4 8 8 14 4 4 8 8 14 10 6 3 13 5 20 5 6 0 11-1 15-3 3-1 6-3 9-5 1-3 2-6 4-10 1-6 2-11 2-15 0 0 0-127 0-127 0 0 46 0 46 0 0 0 0 121 0 121 0 12 4 22 11 28 8 7 18 11 32 11 7 0 12-1 16-3 4-1 6-3 8-6 3-3 5-6 5-9 1-7 2-12 2-15 0 0 0-127 0-127 0 0 46 0 46 0"/>
<glyph unicode="&#57431;" d="M353 507c15 0 27-5 37-15 10-10 14-22 14-36 0 0 0-400 0-400 0-13-4-25-14-36-10-10-22-15-37-15 0 0-194 0-194 0-14 0-26 5-36 15-10 11-15 23-15 36 0 0 0 400 0 400 0 14 5 26 15 36 10 10 22 15 36 15 0 0 194 0 194 0m-97-481c10 0 19 2 26 7 6 5 10 11 10 18 0 8-4 14-10 19-7 4-16 7-26 7-10 0-18-3-25-8-7-5-11-11-11-18 0-7 4-13 11-18 7-5 15-7 25-7m108 76c0 0 0 338 0 338 0 0-216 0-216 0 0 0 0-338 0-338 0 0 216 0 216 0"/>
<glyph unicode="&#57432;" d="M461 481c14 0 26-5 36-15 10-10 15-22 15-36 0 0 0-282 0-282 0-14-5-27-15-39-10-12-22-19-35-22 0 0-112-22-112-22 0 0 44-20 44-20 17-10 14-14-10-14 0 0-256 0-256 0-33 0-28 9 16 26 0 0 19 8 19 8 0 0-113 22-113 22-13 3-25 10-35 22-10 12-15 25-15 39 0 0 0 282 0 282 0 14 5 26 15 36 11 10 23 15 36 15 0 0 410 0 410 0m0-330c0 0 0 284 0 284 0 0-410 0-410 0 0 0 0-284 0-284 0 0 410 0 410 0"/>
<glyph unicode="&#57433;" d="M314 199c37 36 58 79 64 129 7 50-2 96-27 138 18-9 34-21 49-37 44-44 66-96 66-158 0-62-22-115-66-158-43-44-96-66-158-66-62 0-115 22-159 66-14 13-26 29-37 48 42-24 89-33 139-26 50 6 93 27 129 64"/>
<glyph unicode="&#57434;" d="M394 143c10-27 7-54-8-80-16-26-39-45-72-57-32-9-62-8-89 5-28 12-45 32-53 60 0 0-54 196-54 196-7 23-6 46 3 69 9 22 23 40 43 54 0 0-49 95-49 95-5 12-3 20 7 25 10 6 18 4 24-7 0 0 51-99 51-99 27 8 53 5 79-8 25-13 42-32 52-59 0 0 66-194 66-194m-166 141c10 3 17 9 21 18 4 9 5 18 2 28-3 9-9 16-18 21-9 4-18 5-27 2-10-3-17-9-21-18-4-9-4-18-2-28 4-9 10-16 18-21 9-4 18-5 27-2"/>
<glyph unicode="&#57435;" d="M384 486c14 0 26-5 36-14 10-10 15-22 15-37 0 0 0-358 0-358 0-14-5-26-15-36-10-10-22-15-36-15 0 0-256 0-256 0-14 0-26 5-36 15-10 10-15 22-15 36 0 0 0 358 0 358 0 15 5 27 15 37 10 9 22 14 36 14 0 0 256 0 256 0m-56-243c11 15 15 30 11 47-3 16-8 30-16 41-9 11-17 22-26 34-8 11-12 20-12 27 0 0-31 0-31 0 0 0 0-188 0-188-14 5-30 5-46-1-14-5-25-13-33-25-7-11-9-22-6-33 4-11 13-18 27-23 14-4 29-4 44 1 30 10 45 27 45 50 0 0 0 134 0 134 12-2 21-7 28-16 6-9 9-18 9-27 0-9-1-16-1-21-2-4-2-5 1-5 1 0 3 1 6 5"/>
<glyph unicode="&#57436;" d="M474 475c6-5 8-11 8-18 0-7-2-13-8-19 0 0-400-400-400-400-6-5-12-7-18-7-6 0-12 2-18 7-6 5-8 11-8 18 0 8 2 14 8 19 0 0 400 400 400 400 12 11 24 11 36 0m-110-197c0 0 25 25 25 25 25-31 43-61 52-88 9-27 8-47-4-59-8-9-21-18-38-30-18-11-40-23-67-36-28-13-55-21-83-23-27-2-55 2-84 12 0 0 142 141 142 141 15-11 30-20 45-27 15-8 27-12 35-13 7-1 13-1 16 0 3 4 3 9 1 18-1 8-5 19-13 34-7 15-17 30-27 46m-142 31c0 0-138-138-138-138-14 45-9 93 14 145 24 51 46 88 68 110 11 11 29 13 54 6 24-8 51-22 81-44 0 0-27-26-27-26-19 13-37 23-53 28-16 5-26 6-30 2-1-3-1-7-1-14 1-7 4-17 10-30 6-13 13-26 22-39"/>
<glyph unicode="&#57437;" d="M135 335c-7 0-15-2-21-5-17 17-32 39-47 65 18 26 40 46 65 61 32-13 57-27 78-42-2-6-3-11-3-17 0-2 1-5 2-11-21-16-41-34-59-53-6 1-11 2-15 2m-50-50c0-12 3-22 10-31-20-39-34-79-41-119-22 36-34 77-34 121 0 38 9 73 26 105 13-21 27-40 43-57-3-8-4-15-4-19m172 162c-10 0-18-2-26-7-19 15-39 27-58 36 29 10 56 16 83 16 41 0 80-11 118-32-26-5-54-14-83-26-9 9-20 13-34 13m75-235c-55 8-104 27-149 57 2 7 2 12 2 16 0 8-2 17-7 26 13 15 30 31 50 46 9-6 19-10 29-10 5 0 11 1 19 4 33-37 55-78 69-123-5-4-10-10-13-16m65-68c13 5 23 15 28 31 20 1 38 5 55 9-15-50-44-89-85-118 2 16 3 33 3 50 0 3 0 8 0 14-1 6-1 11-1 14m-76 34c-65-33-117-79-156-139-31 12-58 31-81 56 4 49 18 96 41 141 2-1 5-2 10-2 10 0 19 3 27 8 48-34 101-55 159-64m94 252c51-46 77-104 77-174 0-8-1-19-3-34-21-6-44-10-66-12-8 19-23 29-45 31-17 49-42 95-76 135 3 7 5 14 5 21 0 0 0 5 0 5 34 15 70 24 108 28m-70-278c5-4 10-7 16-10 1-6 1-15 1-26 0-28-2-52-7-74-29-14-62-22-99-22-20 0-39 3-57 7 37 54 86 96 146 125"/>
</font>
</defs>
</svg>
